Сегодня идет свободное скачивание без начисления Download

Умереть молодым / Dying Young (Джоэл Шумахер) (Драма, Мелодрама, 1991) BDRip

Ответить на тему
 
Автор
Сообщение

_Night Speed_33rus ®

Пол:

Стаж: 3 года 11 месяцев

Сообщений: 70

Откуда: Владимир

Торрент-статистика

Пост 26-Июл-2013 11:43

[Цитировать]

Умереть молодым / Dying Young- Год выпуска: 1991
Жанр: Драма, Мелодрама
Описание фильма:
Хилари О`Нил бросает ее приятель, и она решает кардинально изменить свою жизнь. Хилари устраивается сиделкой к гениальному, но умирающему от лейкемии человеку. Постепенно взаимная симпатия перерастает в пламенную страсть, но эта любовь обречена, ибо неизлечимая болезнь набирает силу…
Режиссер: Джоэл Шумахер
Актеры: Джулия Робертс, Кэмпбелл Скотт, Винсент Д’Онофрио, Коллин Дьюхёрст, Дэвид Селби, Эллен Бёрстин, Дион Андерсон, Джордж Мартин, Эдриенн-Джой Джонсон, Дэниэл Бир...
Продолжительность: 01:51:21
Качество видео: BDRip (источник: Blu-ray / 1080p)
Перевод: Профессиональный (многоголосый, закадровый) /
Авторский (одноголосый, закадровый) А. Михалев
Язык субтитров: Русские, Английские
Вид субтитров: Отдельным файлом
Видео: XviD build 65, 704x384 (1.83:1), 2149 kbps, 0.33 bit/pix
Аудио 1: AC3, 3/2 (L,C,R,l,r)+LFE ch, 448 kbps avg многоголосый
Аудио 2: AC3 Dolby Digital, 2/0 (L,R) ch, 192 kbps avg одноголосый
Аудио 3: AC3, 3/2 (L,C,R,l,r)+LFE ch, 448 kbps английский, отдельно

MediaInfo:

Общее
Полное имя : C:\Users\Torrents\Dying Young\Umeret_molodym_BDRip\Umeret.molodym.1991.BDRip.avi
Формат : AVI
Формат/Информация : Audio Video Interleave
Профиль формата : OpenDML
Размер файла : 2,18 Гбайт
Продолжительность : 1 ч. 51 м.
Общий поток : 2807 Кбит/сек
Название фильма : Умереть молодым / Dying Young (1991) BDRip
Жанр : драма, мелодрама
Программа кодирования : VirtualDubMod 1.5.10.2 (build 2540/release)
Видео
Идентификатор : 0
Формат : MPEG-4 Visual
Профиль формата : Advanced [email protected]
Параметр BVOP формата : 1
Параметр QPel формата : Нет
Параметр GMC формата : Без точки перехода
Параметр матрицы формата : Выборочная
Идентификатор кодека : XVID
Идентификатор кодека/Подсказка : XviD
Продолжительность : 1 ч. 51 м.
Битрейт : 2149 Кбит/сек
Ширина : 704 пикселя
Высота : 384 пикселя
Соотношение сторон : 1,85:1
Частота кадров : 23,976 кадра/сек
Цветовое пространство : YUV
Субдискретизация насыщенности : 4:2:0
Битовая глубина : 8 бит
Тип развёртки : Прогрессивная
Метод сжатия : С потерями
Бит/(Пиксели*Кадры) : 0.332
Размер потока : 1,67 Гбайт (77%)
Библиотека кодирования : XviD 65
Аудио #1
Идентификатор : 1
Формат : AC-3
Формат/Информация : Audio Coding 3
Расширение режима : CM (complete main)
Параметр Endianness формата : Big
Идентификатор кодека : 2000
Продолжительность : 1 ч. 51 м.
Вид битрейта : Постоянный
Битрейт : 448 Кбит/сек
Каналы : 6 каналов
Расположение каналов : Front: L C R, Side: L R, LFE
Частота : 48,0 КГц
Битовая глубина : 16 бит
Метод сжатия : С потерями
Размер потока : 357 Мбайт (16%)
Выравнивание : Разделение по промежуткам
Продолжительность промежутка : 42 мс. (1,00 видеокадр)
Время предзагрузки промежутка : 500 мс.
Аудио #2
Идентификатор : 2
Формат : AC-3
Формат/Информация : Audio Coding 3
Расширение режима : CM (complete main)
Параметр Endianness формата : Big
Идентификатор кодека : 2000
Продолжительность : 1 ч. 51 м.
Вид битрейта : Постоянный
Битрейт : 192 Кбит/сек
Каналы : 2 канала
Расположение каналов : Front: L R
Частота : 48,0 КГц
Битовая глубина : 16 бит
Метод сжатия : С потерями
Размер потока : 153 Мбайт (7%)
Выравнивание : Разделение по промежуткам
Продолжительность промежутка : 42 мс. (1,00 видеокадр)
Время предзагрузки промежутка : 500 мс.
         
       
Вне форума [Профиль] [ЛС]
Похожие темы
Форум Тема Автор Торрент Отв. Посл. сообщение
./templates/default/images/folder_dl.gif Фильмы 2001-2010 Крепкий орешек: Хороший день, чтобы умереть / A Good Day to Die Hard (Боевик,Триллер,Криминал.2013) BDRip [H.264/720р-LQ] KirovSOFT
1 | 0

0 | 552

44

2013-05-24 21:15
KirovSOFT Последнее
Показать сообщения:    
Ответить на тему

Текущее время: Сегодня 00:20

Часовой пояс: GMT + 3



Вы не можете начинать темы
Вы не можете отвечать на сообщения
Вы не можете редактировать свои сообщения
Вы не можете удалять свои сообщения
Вы не можете голосовать в опросах
Вы не можете прикреплять файлы к сообщениям
Вы не можете скачивать файлы