Сегодня идет свободное скачивание без начисления Download

Дилер / Пушер / Торговец наркотиками / Бандюганы / Pusher (Николас Виндинг Рефн) (Триллер, Криминал, 1996) BDRip

Ответить на тему
 
Автор
Сообщение

_Night Speed_33rus ®

Пол:

Стаж: 3 года 11 месяцев

Сообщений: 70

Откуда: Владимир

Торрент-статистика

Пост 26-Июл-2013 11:46

[Цитировать]

Дилер / Пушер / Торговец наркотиками / Бандюганы / Pusher - Год выпуска: 1996
Жанр: Триллер, Криминал
Описание фильма:
Одна неделя из жизни обыкновенного наркоторговца из Копенгагена.
В беззаботный понедельник у него были деньги, друзья, любимая женщина и ощущение "жизнь удалась",
к агонизирующему воскресенью осталось лишь черное небо над избитой головой. Наркотики, рэйвы, драки, спортивные костюмы,
восточно-европейские бандиты — весь цвет криминала 90-х в одном фильме, снятом в полудокументальной манере.
Режиссер: Николас Виндинг Рефн
Актеры: Ким Бодниа, Златко Бурич, Лаура Драсбек, Славко Лабович, Мадс Миккельсен
Продолжительность: 01:50:08
Качество видео: BDRip
Перевод: Многоголосый закадровый + Авторский одноголосый закадровый (Сергей Рябов)

Дата мировой премьеры: 30 августа 1996
Дата выхода DVD релиза: 9 июля 2013
Видеокодек: Xvid
Битрейт видео: ~1628 kbps
Размер кадра: 720х400
Аудио#1: 48 kHz, AC3 5.1, 384.00 kbps | (Многоголосый)
Аудио#2: 48 kHz, AC3 2.0, 192.00 kbps | (С. Рябов)
Аудио#3: 48 kHz, AC3 5.1, 448.00 kbps | (Датский)

MI

Общее
Полное имя : E:\Фильмы М\Pusher (1996) BDRip.avi
Формат : AVI
Формат/Информация : Audio Video Interleave
Профиль формата : OpenDML
Размер файла : 2,05 Гбайт
Продолжительность : 1 ч. 49 м.
Общий поток : 2676 Кбит/сек
Название фильма : Пушер / Дилер / Торговец наркотиками / Бандюганы / Pusher (1996) BDRip
Программа кодирования : VirtualDubModRus 1.5.10.2 (build 2542/release)
Библиотека кодирования : VirtualDubMod build 2542/release
Правообладатель : rip by maygli
Видео
Идентификатор : 0
Формат : MPEG-4 Visual
Профиль формата : Advanced [email protected]
Параметр BVOP формата : 4
Параметр QPel формата : Нет
Параметр GMC формата : Без точки перехода
Параметр матрицы формата : Default (H.263)
Режим смешивания : Сжатый битовый поток
Идентификатор кодека : XVID
Идентификатор кодека/Подсказка : XviD
Продолжительность : 1 ч. 49 м.
Битрейт : 1628 Кбит/сек
Ширина : 720 пикселей
Высота : 400 пикселей
Соотношение сторон : 16:9
Частота кадров : 24,000 кадра/сек
Цветовое пространство : YUV
Субдискретизация насыщенности : 4:2:0
Битовая глубина : 8 бит
Тип развёртки : Прогрессивная
Метод сжатия : С потерями
Бит/(Пиксели*Кадры) : 0.236
Размер потока : 1,25 Гбайт (61%)
Библиотека кодирования : XviD 65
Аудио #1
Идентификатор : 1
Формат : AC-3
Формат/Информация : Audio Coding 3
Расширение режима : CM (complete main)
Параметр Endianness формата : Big
Идентификатор кодека : 2000
Продолжительность : 1 ч. 49 м.
Вид битрейта : Постоянный
Битрейт : 384 Кбит/сек
Каналы : 6 каналов
Расположение каналов : Front: L C R, Side: L R, LFE
Частота : 48,0 КГц
Битовая глубина : 16 бит
Метод сжатия : С потерями
Размер потока : 301 Мбайт (14%)
Выравнивание : Разделение по промежуткам
Продолжительность промежутка : 42 мс. (1,00 видеокадр)
Время предзагрузки промежутка : 500 мс.
Аудио #2
Идентификатор : 2
Формат : AC-3
Формат/Информация : Audio Coding 3
Расширение режима : CM (complete main)
Параметр Endianness формата : Big
Идентификатор кодека : 2000
Продолжительность : 1 ч. 49 м.
Вид битрейта : Постоянный
Битрейт : 192 Кбит/сек
Каналы : 2 канала
Расположение каналов : Front: L R
Частота : 48,0 КГц
Битовая глубина : 16 бит
Метод сжатия : С потерями
Размер потока : 151 Мбайт (7%)
Выравнивание : Разделение по промежуткам
Продолжительность промежутка : 42 мс. (1,00 видеокадр)
Время предзагрузки промежутка : 500 мс.
Аудио #3
Идентификатор : 3
Формат : AC-3
Формат/Информация : Audio Coding 3
Расширение режима : CM (complete main)
Параметр Endianness формата : Big
Идентификатор кодека : 2000
Продолжительность : 1 ч. 49 м.
Вид битрейта : Постоянный
Битрейт : 448 Кбит/сек
Каналы : 6 каналов
Расположение каналов : Front: L C R, Side: L R, LFE
Частота : 48,0 КГц
Битовая глубина : 16 бит
Метод сжатия : С потерями
Размер потока : 352 Мбайт (17%)
Выравнивание : Разделение по промежуткам
Продолжительность промежутка : 42 мс. (1,00 видеокадр)
Время предзагрузки промежутка : 500 мс.
Скриншоты:
           
Вне форума [Профиль] [ЛС]
Показать сообщения:    
Ответить на тему

Текущее время: Сегодня 15:08

Часовой пояс: GMT + 3



Вы не можете начинать темы
Вы не можете отвечать на сообщения
Вы не можете редактировать свои сообщения
Вы не можете удалять свои сообщения
Вы не можете голосовать в опросах
Вы не можете прикреплять файлы к сообщениям
Вы не можете скачивать файлы