Сегодня идет свободное скачивание без начисления Download

Четвертый мужчина / De Vierde man (Пол Верховен) (Драма, Детектив, Триллер 1983) DVDRip

Ответить на тему
 
Автор
Сообщение

Omen ®

Стаж: 4 года 1 месяц

Сообщений: 194390

Торрент-статистика

Пост 26-Июл-2013 16:13

[Цитировать]

Четвертый мужчина / De Vierde man - Год выпуска: 1983
Жанр: Драма, Детектив, Триллер
Производство: Нидерланды, Rob Houwer Productions, Verenigde Nederlandsche Filmcompagnie (VNF)
Описание фильма:
Герард — популярный писатель, алкоголик и гомосексуалист, сочиняющий противоречивые романы, в которых вымысел тесно переплетен с реальностью. Но когда его начинает соблазнять сексуальная вдова Кристин, Герард погружается в кошмарную пучину богохульства, кровопролития и бисексуальных желаний. Действительно ли Кристин убила трех своих предыдущих мужей, или же Герарду только кажется в его видениях, что ему уготована ужасная судьба четвертого мужчины?
Режиссер: Пол Верховен
Актеры: Йерун Краббе, Рене Саутендейк, Том Хоффман, Дольф де Врис, Херт де Йонг, Ганс Верман, Херо Мюллер, Кэролайн Де Бёс, Рейну Буссемакер, Эрик Й. Мейер
Продолжительность: 01:38:15
Качество видео: DVDRip
Перевод: Многоголосый закадровый

Видеокодек: Xvid
Битрейт видео: ~1790 Кбит/с
Размер кадра: 656x384
Аудиокодек: AC3 2.0
Битрейт аудио: 192 Кбит/с

MediaInfo:

General
Complete name : D:\Фильмы\Chetvertyj.muzhchina.1983.XviD.DVDRip.avi
Format : AVI
Format/Info : Audio Video Interleave
File size : 1.37 GiB
Duration : 1h 38mn
Overall bit rate : 1 989 Kbps
Writing application : FairUse Wizard - http://fairusewizard.com
Writing library : The best and REALLY easy backup tool
Video
ID : 0
Format : MPEG-4 Visual
Format profile : Advanced [email protected]
Format settings, BVOP : 1
Format settings, QPel : No
Format settings, GMC : No warppoints
Format settings, Matrix : Default (MPEG)
Muxing mode : Packed bitstream
Codec ID : XVID
Codec ID/Hint : XviD
Duration : 1h 38mn
Bit rate : 1 787 Kbps
Width : 656 pixels
Height : 384 pixels
Display aspect ratio : 16:9
Frame rate : 25.000 fps
Color space : YUV
Chroma subsampling : 4:2:0
Bit depth : 8 bits
Scan type : Progressive
Compression mode : Lossy
Bits/(Pixel*Frame) : 0.284
Stream size : 1.23 GiB (90%)
Writing library : XviD 1.2.0.dev47 (UTC 2006-11-01)
Audio
ID : 1
Format : AC-3
Format/Info : Audio Coding 3
Mode extension : CM (complete main)
Codec ID : 2000
Duration : 1h 38mn
Bit rate mode : Constant
Bit rate : 192 Kbps
Channel(s) : 2 channels
Channel positions : Front: L R
Sampling rate : 48.0 KHz
Bit depth : 16 bits
Compression mode : Lossy
Stream size : 135 MiB (10%)
Alignment : Split accross interleaves
Interleave, duration : 40 ms (1.00 video frame)
Interleave, preload duration : 500 ms
Скриншоты:
           
Вне форума [Профиль] [ЛС]
Показать сообщения:    
Ответить на тему

Текущее время: Сегодня 13:31

Часовой пояс: GMT + 3



Вы не можете начинать темы
Вы не можете отвечать на сообщения
Вы не можете редактировать свои сообщения
Вы не можете удалять свои сообщения
Вы не можете голосовать в опросах
Вы не можете прикреплять файлы к сообщениям
Вы не можете скачивать файлы