Сегодня идет свободное скачивание без начисления Download

Техника супружеской измены / Adultere, mode d'emploi / Adultery: A User's Guide (Кристин Паскаль) (Драма, Мелодрама, Комедия 1995) DVDRip

Ответить на тему
 
Автор
Сообщение

Omen ®

Стаж: 4 года 1 месяц

Сообщений: 194390

Торрент-статистика

Пост 26-Июл-2013 17:04

[Цитировать]

Техника супружеской измены
Adultere, mode d'emploi / Adultery: A User's Guide
-«Une fois n'est pas coutume.»
«Один раз - не считается.»
- Производство: Франция, Швейцария, Canal+ (Fr), Centre National de la Cinématographie (CNC), Ciné Manufacture, France 2 Cinéma, Office Fédéral de la Culture, PXP Productions, Téléclub, Télévision Suisse-Romande (TSR)
Год выпуска: 1995
Жанр: Драма, Мелодрама, Комедия
Описание фильма:
Измена для мужчины — просто сексуальное лакомство. Женщина придумывает историю, в которую верит, воображая, что влюблена. Из сексуальных отношений она готовит для себя «блюдо». Сколько же в измене бессознательного женского притворства.
Желательно сделать измену более важным событием в жизни, чем это есть на самом деле. Когда женщине удается взять что-то у мужчины, она не довольствуется этим малым, она забирает у него все. Таково коварство женщин!
Режиссер: Кристин Паскаль
Актеры: Ришар Берри, Карин Вьяр, Венсан Кассель, Эммануэль Халими, Лилиан Ровер, Анни Роман, Элен Фийер, Патрис-Флора Праксо, Марина Томе, Жан-Луи Трибе.
Продолжительность: 01:31:08
Качество видео: DVDRip
Перевод: Многоголосый закадровый
Автор перевода: StM concern

Дата мировой премьеры: 05.07.1995
Видео: 512x336 (1.52:1), 25 fps, XviD MPEG-4 ~935 kbps avg, 0.22 bit/pixel
Аудио: 48 kHz, AC3 Dolby Digital, 2/0 (L,R) ch, ~192 kbps

MediaInfo

General
Complete name : D:\Public\Texnika.supruzheskoi.izmeny.1995.DVDRip.avi
Format : AVI
Format/Info : Audio Video Interleave
File size : 742 MiB
Duration : 1h 31mn
Overall bit rate : 1 137 Kbps
Writing application : VirtualDubMod 1.5.10.3 | www.virtualdub-fr.org || (build 2550/release)
Writing library : VirtualDubMod build 2550/release
Video
ID : 0
Format : MPEG-4 Visual
Format profile : Advanced [email protected]
Format settings, BVOP : 1
Format settings, QPel : No
Format settings, GMC : No warppoints
Format settings, Matrix : Default (MPEG)
Muxing mode : Packed bitstream
Codec ID : XVID
Codec ID/Hint : XviD
Duration : 1h 31mn
Bit rate : 936 Kbps
Width : 512 pixels
Height : 336 pixels
Display aspect ratio : 3:2
Frame rate : 25.000 fps
Color space : YUV
Chroma subsampling : 4:2:0
Bit depth : 8 bits
Scan type : Progressive
Compression mode : Lossy
Bits/(Pixel*Frame) : 0.218
Stream size : 610 MiB (82%)
Writing library : XviD 1.2.0.dev47 (UTC 2006-11-01)
Audio
ID : 1
Format : AC-3
Format/Info : Audio Coding 3
Mode extension : CM (complete main)
Codec ID : 2000
Duration : 1h 31mn
Bit rate mode : Constant
Bit rate : 192 Kbps
Channel(s) : 2 channels
Channel positions : Front: L R
Sampling rate : 48.0 KHz
Bit depth : 16 bits
Compression mode : Lossy
Stream size : 125 MiB (17%)
Alignment : Split accross interleaves
Interleave, duration : 40 ms (1.00 video frame)
Interleave, preload duration : 500 ms
Скриншоты:
         
Вне форума [Профиль] [ЛС]
Похожие темы
Форум Тема Автор Торрент Отв. Посл. сообщение
./templates/default/images/folder_dl.gif 3D модели и сцены Photostoсks 3D модели Людей,Домов, Спец техники, Деревьев (dwg). Для AutoCad Omen
1 | 0

0 | 879

12

2012-12-07 23:44
Omen Последнее
./templates/default/images/folder_dl.gif Обучающее видео Ягодкин Николай | Техника запоминания 100 иностранных слов в час [2012] PCRec UndegraundMen
2 | 0

10 | 6090

122

2015-10-20 15:48
Геннадич Последнее
./templates/default/images/folder_dl.gif Техническая и научно-популярная литература С.А.Воротников | Информационные устройства робототехнических систем [2005] [DJVU] sashau
1 | 0

0 | 224

2

2013-06-30 11:09
sashau Последнее
./templates/default/images/folder_dl.gif Разное В.А. Козаренко | Мнемотехника шаг за шагом [2013] [PDF] UndegraundMen
1 | 0

0 | 428

8

2013-08-28 23:02
UndegraundMen Последнее
./templates/default/images/folder_dl.gif Психология, Тренинг, Саморазвитие Дэвид Лерой | Психотехники влияния. Секретные методики спецслужб (2013) [FB2, PDF] sashau
1 | 0

0 | 618

13

2014-12-20 02:43
sashau Последнее
./templates/default/images/folder_dl.gif Техническая и научно-популярная литература Андрей Кашкаров | Сам себе сантехник. Сантехнические дачные коммуникации (2013) [FB2] Omen
1 | 0

0 | 297

15

2015-03-27 21:22
Omen Последнее
./templates/default/images/folder_dl.gif Компьютерная литература Pensionary | Шелл-хантинг, или все технические моменты поиска и защиты от шеллов (2013) [PDF] Aikivas
1 | 0

0 | 1484

8

2015-05-13 00:08
Aikivas Последнее
./templates/default/images/folder_dl.gif Техническая и научно-популярная литература 152-мм самоходная гаубица 2С3М. Техническое описание и инструкция по эксплуатации. Книга 2 Части 1 и 2 152-мм гаубица 2А33 [1979, DjVu, RUS] Omen
1 | 0

0 | 222

3

2015-05-15 12:14
Omen Последнее
./templates/default/images/folder_dl.gif Обучающее видео Поведение людей для специалистов технических профессий / Human Behavior for Technical People [2014, психология людей, HDRip, ENG] (Видеоурок) Omen
1 | 0

0 | 255

8

2015-07-10 00:04
Omen Последнее
./templates/default/images/folder_dl.gif Видеотренинги Полонейчик Иван Иванович | Эффективные психотехники (2008) DVDRip Varius
1 | 0

0 | 45

12

2016-01-01 20:38
Varius Последнее
Показать сообщения:    
Ответить на тему

Текущее время: Сегодня 17:22

Часовой пояс: GMT + 3



Вы не можете начинать темы
Вы не можете отвечать на сообщения
Вы не можете редактировать свои сообщения
Вы не можете удалять свои сообщения
Вы не можете голосовать в опросах
Вы не можете прикреплять файлы к сообщениям
Вы не можете скачивать файлы