Сегодня идет свободное скачивание без начисления Download

С широко закрытыми глазами / Eyes Wide Shut (Стэнли Кубрик) (Триллер, Драма, Детектив 1999) HDRip [H.264]

Ответить на тему
 
Автор
Сообщение

Omen ®

Стаж: 4 года 1 месяц

Сообщений: 194359

Торрент-статистика

Пост 26-Июл-2013 17:20

[Цитировать]

С широко закрытыми глазами
Eyes Wide Shut
-«Cruise. Kidman. Kubrick.»- Год выпуска: 1999
Жанр: Триллер, Драма, Детектив
Производство: Великобритания, США/Hobby Films, Pole Star, Stanley Kubrick Productions, Warner Bros. Pictures
Описание фильма:
Билл и Элис Харфорд — супружеская пара, производящая впечатление счастливых людей, живущих своей размеренной жизнью в полном достатке. Но за фасадом идеальных отношений скрываются потоки ревности, неудовлетворенности, тайных желаний и жажды чего-то запредельного.
Первый шаг делает Элис, рассказывая мужу о своих фантазиях. Терзаемый ревностью Билл идет дальше, выходя за рамки мыслей и слов. Он наяву отправляется в пьянящую сексуальную одиссею, ведомый соблазном и щекочущими нервы переживаниями. Если бы в начале пути он знал, что пределом его мечтаний станет возможность вернуться к своей привычной семейной жизни, он бы не поверил, ведь искушение вкусить запретный плод было слишком сильно…
Режиссер: Стэнли Кубрик
Сценарий: Стэнли Кубрик, Фредерик Рафаэль, Артур Шницлер
Продюсер: Стэнли Кубрик, Брайан В. Кук, Ян Харлан
Актеры: Том Круз, Николь Кидман, Мэдисон Эджинтон, Джеки Совирис, Сидни Поллак, Лесли Лоу, Питер Бенсон, Тодд Филд, Майкл Доуен, Скай Дюмонт
Продолжительность: 02:39:01
Качество видео: HDRip
Перевод: Многоголосый закадровый

Дата мировой премьеры: 13 июля 1999
Дата выхода DVD релиза: 20 января 2011, «CP-Digital»
Видеокодек: MPEG-4 AVC/H.264
Битрейт видео: ~1475 Кбит/сек
Размер кадра: 1024x576
Аудиокодек: AC3 2.0
Битрейт аудио: 192 kbps

Знаете ли вы, что...

Фильм снят по мотивам повести Артура Шницлера «Новелла о снах» (Traumnovelle, 1925).
Сценарист Фредерик Рафаэль считал, что на роль доктора Шойера (такая фамилия была в оригинальном романе) следует взять еврея, как и описано в романе. Но Кубрик посчитал, что будет лучше сделать Шойера и его жену обычными американцами и сменить фамилию.
Кубрик сказал, что видит Шойера немного похожим на Харрисона Форда — так пришла в голову фамилия Хав.
Режиссёр Сидни Поллак согласился сыграть Виктора Циглера в последний момент, так как Харви Кейтель был уволен со съёмок.
Чтобы фильм по цензурным соображениям мог быть показан в США, некоторые наиболее откровенные сексуальные сцены пришлось «доработать» с помощью компьютерной графики.
Когда Кубрику в 1980-х пришла идея этого фильма, он подумывал о Стиве Мартине в главной роли.
Пароль «фиделио» происходит от латинского слова «fidelis», что означает «верный». Кроме того, «Фиделио» — это название единственной оперы Людвига ван Бетховена.
Съёмки длились 400 дней. Круз и Кидман согласились подписать «открытые» контракты, то есть обязались сниматься столько, сколько было нужно Кубрику, как бы долго это ни продолжалось. После съёмок почти целый год фильм находился в послесъёмочной подготовке.
Герою Круза в начале фильма, на вечеринке, две девушки предлагали направиться «туда, где кончается радуга». Точно так же называется детская пьеса начала XX века (1911 год) и одноимённый художественный фильм (1921 год).
Кубрик ушел из жизни за несколько недель до премьеры кинофильма, и последней кинематографической волей режиссера стал запрет на дубляж фильма на иностранные языки — в зарубежных прокатах «С широко закрытыми глазами» вышел с субтитрами.

Реценция с кинопоиска от Shemy:

Глубокий, неожиданный, сумасшедший, странный, сильный, захватывающий — вот немногие эпитеты, которые приходят в голову после просмотра этого фильма. Его невозможно оценить однозначно, но безусловно — это шедевр.
Актеры. Кидман и Круз сыграли идеально. Наверно, во многом благодаря тому, что на момент съемок они тоже были семейной парой со стажем, с хорошим благосостоянием, но с трещиной в отношениях. Их игре веришь безоговорочно и даже иногда забываешь, что это всего лишь актеры.
Фильм. Сюжет с одной стороны не оригинальный,, но с другой стороны его трактовка очень необычна. Фильм безусловно смелый. Не часто в американском кинематографе можно встретить фильм с таким количеством «острых» сцен, которые показаны зрителю, и с еще большим количеством, которые остаются за кадром.
Музыка. На мой взгляд музыка — это один из важнейших персонажей фильма. Она создает настрой, атмосферу, многое объясняет.
10 из 10

Награды:

Золотой глобус, 2000 год
Номинации (1):
Лучший саундтрек
Сезар, 2000 год
Номинации (1):
Лучший фильм на иностранном языке
Венецианский кинофестиваль, 1999 год
Победитель (1):
Премия «Bastone Bianco»

MediaInfo:

Общее
Уникальный идентификатор : 177586438907635412763947198541229513570 (0x8599E76F39F8B0069A186AEA094CDB62)
Полное имя : H:\Downloads\С широко закрытыми глазами.mkv
Формат : Matroska
Размер файла : 1,85 Гбайт
Продолжительность : 2 ч. 39 м.
Общий поток : 1668 Кбит/сек
Название фильма : С широко закрытыми глазами / Eyes Wide Shut (1999)
Дата кодирования : UTC 2013-07-24 10:50:29
Программа кодирования : mkvmerge v6.0.0 ('Coming Up For Air') built on Jan 20 2013 09:52:00
Библиотека кодирования : libebml v1.3.0 + libmatroska v1.4.0
Видео
Идентификатор : 1
Формат : AVC
Формат/Информация : Advanced Video Codec
Профиль формата : [url=mailto:[email protected]][email protected][/url]
Параметр CABAC формата : Да
Параметр ReFrames формата : 8 кадров
Идентификатор кодека : V_MPEG4/ISO/AVC
Продолжительность : 2 ч. 39 м.
Битрейт : 1475 Кбит/сек
Ширина : 1024 пикс.
Высота : 576 пикс.
Соотношение сторон : 16:9
Частота кадров : 23,976 кадр/сек
Цветовое пространство : YUV
Подвыборка цветности : 4:2:0
Битовая глубина : 8 бит
Тип развёртки : Прогрессивная
Бит/(Пиксели*Кадры) : 0.104
Размер потока : 1,60 Гбайт (86%)
Заголовок : Eyes Wide Shut
Библиотека кодирования : x264 core 125 r2208 d9d2288
Настройки программы : cabac=1 / ref=8 / deblock=1:-1:-1 / analyse=0x3:0x133 / me=umh / subme=9 / psy=1 / psy_rd=1.00:0.10 / mixed_ref=1 / me_range=32 / chroma_me=1 / trellis=2 / 8x8dct=1 / cqm=0 / deadzone=21,11 / fast_pskip=0 / chroma_qp_offset=-3 / threads=6 / lookahead_threads=1 / sliced_threads=0 / nr=0 / decimate=1 / interlaced=0 / bluray_compat=0 / constrained_intra=0 / bframes=3 / b_pyramid=2 / b_adapt=2 / b_bias=0 / direct=3 / weightb=1 / open_gop=0 / weightp=2 / keyint=250 / keyint_min=25 / scenecut=40 / intra_refresh=0 / rc_lookahead=60 / rc=2pass / mbtree=1 / bitrate=1475 / ratetol=1.0 / qcomp=0.60 / qpmin=10 / qpmax=51 / qpstep=4 / cplxblur=20.0 / qblur=0.5 / ip_ratio=1.40 / aq=1:1.00
Язык : English
Аудио
Идентификатор : 2
Формат : AC-3
Формат/Информация : Audio Coding 3
Расширение режима : CM (complete main)
Идентификатор кодека : A_AC3
Продолжительность : 2 ч. 39 м.
Вид битрейта : Постоянный
Битрейт : 192 Кбит/сек
Каналы : 2 канала
Расположение каналов : Front: L R
Частота : 48,0 КГц
Битовая глубина : 16 бит
Метод сжатия : С потерями
Размер потока : 218 Мбайт (12%)
Заголовок : Многоголосый закадровый
Язык : Russian
Скриншоты:                    
Вне форума [Профиль] [ЛС]
Показать сообщения:    
Ответить на тему

Текущее время: Сегодня 14:52

Часовой пояс: GMT + 3



Вы не можете начинать темы
Вы не можете отвечать на сообщения
Вы не можете редактировать свои сообщения
Вы не можете удалять свои сообщения
Вы не можете голосовать в опросах
Вы не можете прикреплять файлы к сообщениям
Вы не можете скачивать файлы