Сегодня идет свободное скачивание без начисления Download

Ромео и Джульетта / Romeo and Juliet (1968) [1080p] BDRip

Ответить на тему
 
Автор
Сообщение

UndegraundMen ®

Стаж: 3 года 9 месяцев

Сообщений: 28329

Торрент-статистика

Пост 27-Июл-2013 11:00

[Цитировать]

Ромео и Джульетта / Romeo and Juliet (1968) BDRip [1080p] -«No ordinary love story...»
Русское название: Ромео и Джульетта
Оригинальное название: Romeo and Juliet
Выпущено: Великобритания, Италия, BHE Film, Verona Produzione, Dino De Laurentiis Cinematografica
Год выпуска: 1968
Жанр: Драма, Мелодрама
Описание фильма:
На балу во дворце Капулетти зарождается любовь двух юных существ, судьбою обреченных на ненависть. Ромео Монтекки и Джульетта Капулетти полюбили друг друга на свою беду, ведь их семьи ведут смертельную вражду уже многие, многие годы… Но их любовь сильнее родовой вражды, сильнее предрассудков и непреодолимых препятствий. Великая сила этой любви побеждает все, даже смерть…
Режиссер: Франко Дзеффирелли
Актеры: Леонард Уайтинг, Оливия Хасси, Джон МакЭнери, Майло О'Ши, Пэт Хейвуд, Роберт Стивенс, Майкл Йорк, Брюс Робинсон, Пол Хардуик, Наташа Парри, Антонио Пьерфедеричи, Эсмеральда Русполи, Роберто Бисакко, Рой Холдер, Кит Скиннер, Дайсон Ловелл, Ричард Уорвик, Роберто Антонелли, Карло Палмуччи.
Продолжительность: 02:18:20
Качество видео: BDRip
Перевод: Дублированный "Союзмультфильм"
Язык субтитров: Русские, английские
Вид субтитров: Вшитые

Дата мировой премьеры: 4 марта 1968
Видеокодек: MPEG-4 AVC/H.264
Битрейт видео: ~12.9 Мбит/с
Размер кадра: 1920x1040
Аудио 1: AC3 Русский 2.0 / 48 kHz / 192 kbps / 16-bit "Союзмультфильм"
Аудио 2: AC3 Английский 6.0 / 48 kHz / 640 kbps / 16-bit Оригинал
Сэмпл: Ссылка

MI

Общее
Уникальный идентификатор : 239563815951903916145223343593965102605 (0xB43A500B5C3CA9FE9E1A1DB7A04A260D)
Полное имя : C:\Xvid4PSP\Romeo.and.Juliet.1968.x264.BDRip.1080p.mkv
Формат : Matroska
Версия формата : Version 4 / Version 2
Размер файла : 13,3 Гбайт
Продолжительность : 2 ч. 18 м.
Общий поток : 13,8 Мбит/сек
Дата кодирования : UTC 2013-07-26 09:56:37
Программа кодирования : mkvmerge v6.3.0 ('You can't stop me!') built on Jun 28 2013 20:09:41
Библиотека кодирования : libebml v1.3.0 + libmatroska v1.4.0
Видео
Идентификатор : 1
Формат : AVC
Формат/Информация : Advanced Video Codec
Профиль формата : [url=mailto:[email protected]][email protected][/url]
Параметр CABAC формата : Да
Параметр ReFrames формата : 4 кадра
Идентификатор кодека : V_MPEG4/ISO/AVC
Продолжительность : 2 ч. 18 м.
Битрейт : 12,9 Мбит/сек
Ширина : 1920 пикселей
Высота : 1040 пикселей
Соотношение сторон : 1,85:1
Режим частоты кадров : Постоянный
Частота кадров : 23,976 кадра/сек
Цветовое пространство : YUV
Субдискретизация насыщенности : 4:2:0
Битовая глубина : 8 бит
Тип развёртки : Прогрессивная
Бит/(Пиксели*Кадры) : 0.270
Размер потока : 12,2 Гбайт (92%)
Библиотека кодирования : x264 core 133 r2334 a3ac64b
Настройки программы : cabac=1 / ref=4 / deblock=1:-3:-3 / analyse=0x3:0x113 / me=umh / subme=8 / psy=1 / psy_rd=1.00:0.00 / mixed_ref=1 / me_range=16 / chroma_me=1 / trellis=1 / 8x8dct=1 / cqm=0 / deadzone=21,11 / fast_pskip=1 / chroma_qp_offset=-2 / threads=18 / lookahead_threads=3 / sliced_threads=0 / nr=0 / decimate=1 / interlaced=0 / bluray_compat=0 / constrained_intra=0 / bframes=3 / b_pyramid=2 / b_adapt=2 / b_bias=0 / direct=3 / weightb=1 / open_gop=0 / weightp=2 / keyint=240 / keyint_min=24 / scenecut=40 / intra_refresh=0 / rc_lookahead=50 / rc=2pass / mbtree=1 / bitrate=12938 / ratetol=1.0 / qcomp=0.60 / qpmin=0 / qpmax=69 / qpstep=4 / cplxblur=20.0 / qblur=0.5 / ip_ratio=1.40 / aq=1:1.00
Язык : English
Default : Да
Forced : Нет
Аудио #1
Идентификатор : 2
Формат : AC-3
Формат/Информация : Audio Coding 3
Расширение режима : CM (complete main)
Параметр Endianness формата : Big
Идентификатор кодека : A_AC3
Продолжительность : 2 ч. 18 м.
Вид битрейта : Постоянный
Битрейт : 192 Кбит/сек
Каналы : 2 канала
Расположение каналов : Front: L R
Частота : 48,0 КГц
Битовая глубина : 16 бит
Метод сжатия : С потерями
Размер потока : 190 Мбайт (1%)
Заголовок : Dub Союзмультфильм AC3 2.0 192 kbps
Язык : Russian
Default : Да
Forced : Нет
Аудио #2
Идентификатор : 3
Формат : AC-3
Формат/Информация : Audio Coding 3
Расширение режима : CM (complete main)
Параметр Endianness формата : Big
Идентификатор кодека : A_AC3
Продолжительность : 2 ч. 18 м.
Вид битрейта : Постоянный
Битрейт : 640 Кбит/сек
Каналы : 6 каналов
Original Channel count : 2 канала
Расположение каналов : Front: L R
Частота : 48,0 КГц
Битовая глубина : 16 бит
Метод сжатия : С потерями
Размер потока : 633 Мбайт (5%)
Заголовок : Original AC3 2.0 640 kbps
Язык : English
Default : Нет
Forced : Нет
Текст #1
Идентификатор : 4
Формат : UTF-8
Идентификатор кодека : S_TEXT/UTF8
Идентификатор кодека/Информация : UTF-8 Plain Text
Заголовок : Дубляж
Язык : Russian
Default : Нет
Forced : Нет
Текст #2
Идентификатор : 5
Формат : UTF-8
Идентификатор кодека : S_TEXT/UTF8
Идентификатор кодека/Информация : UTF-8 Plain Text
Заголовок : SDH
Язык : English
Default : Нет
Forced : Нет
Меню
00:00:00.000 : en:00:00:00.000
00:08:29.342 : en:00:08:29.342
00:12:23.034 : en:00:12:23.034
00:17:00.353 : en:00:17:00.353
00:22:51.745 : en:00:22:51.745
00:30:46.136 : en:00:30:46.136
00:38:52.247 : en:00:38:52.247
00:51:44.935 : en:00:51:44.935
00:57:01.585 : en:00:57:01.585
01:04:48.218 : en:01:04:48.218
01:10:56.043 : en:01:10:56.043
01:28:35.519 : en:01:28:35.519
01:34:43.094 : en:01:34:43.094
01:40:51.045 : en:01:40:51.045
01:48:38.303 : en:01:48:38.303
01:55:40.100 : en:01:55:40.100
02:12:47.793 : en:02:12:47.793
02:15:38.339 : en:02:15:38.339
Скриншоты:
         
Время раздачи: 24/7
Вне форума [Профиль] [ЛС]
Показать сообщения:    
Ответить на тему

Текущее время: Сегодня 05:09

Часовой пояс: GMT + 3



Вы не можете начинать темы
Вы не можете отвечать на сообщения
Вы не можете редактировать свои сообщения
Вы не можете удалять свои сообщения
Вы не можете голосовать в опросах
Вы не можете прикреплять файлы к сообщениям
Вы не можете скачивать файлы