Сегодня идет свободное скачивание без начисления Download

Учительница на дому / L'insegnante viene a casa (Мишель Массимо Тарантини) (Комедия 1978) DVDRip [H.264]

Ответить на тему
 
Автор
Сообщение

Omen ®

Стаж: 4 года 1 месяц

Сообщений: 194359

Торрент-статистика

Пост 27-Июл-2013 11:48

[Цитировать]

Учительница на дому
L'insegnante viene a casa
- Год выпуска: 1978
Жанр: Комедия
Производство: Италия, Франция/Devon Film, Imp.Ex.Ci., Les Films Jacques Leitienne, Medusa Produzione
Описание фильма:
Преподаватель Луиза приезжает в Лукку, где проживает человек в которого она влюбленна. Она считала его холостым и решила сделать приятный сюрприз, но…
Режиссер: Мишель Массимо Тарантини
Сценарий: Francesco Milizia, Мишель Массимо Тарантини, Лучано Мартино
Продюсер: Лучано Мартино
Актеры: Эдвиж Фенек, Ренцо Монтаньяни, Альваро Витали, Марко Джелардини, Лино Банфи, Карло Спозито, Джизелла Софио, Клара Колозимо, Лучио Монтанаро, Жак Стани, Джанфранко Барра, Риа Де Симоне, Джимми иль Феномено
Продолжительность: 01:28:04
Качество видео: DVDRip
Перевод: Одноголосый закадровый (Вячеслав Котов)
Субтитры: Отсутствуют

Дата мировой премьеры: 28 ноября 1978
Видеокодек: MPEG-4 AVC/H.264
Битрейт видео: ~2040 Кбит/сек
Размер кадра: 720x400
Аудиокодек: AC3 2.0
Битрейт аудио: 192 kbps

MediaInfo:

Общее
Уникальный идентификатор : 240761381310809713197613779818084577181 (0xB520F4933FECA5CE95D9E3E4EFD02F9D)
Полное имя : H:\Downloads\Учительница на дому.mkv
Формат : Matroska
Размер файла : 1,37 Гбайт
Продолжительность : 1 ч. 28 м.
Общий поток : 2234 Кбит/сек
Дата кодирования : UTC 2013-07-27 04:24:45
Программа кодирования : mkvmerge v6.0.0 ('Coming Up For Air') built on Jan 20 2013 09:52:00
Библиотека кодирования : libebml v1.3.0 + libmatroska v1.4.0
Видео
Идентификатор : 1
Формат : AVC
Формат/Информация : Advanced Video Codec
Профиль формата : [url=mailto:[email protected]][email protected][/url]
Параметр CABAC формата : Да
Параметр ReFrames формата : 8 кадров
Параметры GOP формата : M=2, N=42
Идентификатор кодека : V_MPEG4/ISO/AVC
Продолжительность : 1 ч. 28 м.
Битрейт : 2040 Кбит/сек
Ширина : 720 пикс.
Высота : 400 пикс.
Соотношение сторон : 16:9
Частота кадров : 25,000 кадр/сек
Цветовое пространство : YUV
Подвыборка цветности : 4:2:0
Битовая глубина : 8 бит
Тип развёртки : Прогрессивная
Бит/(Пиксели*Кадры) : 0.283
Размер потока : 1,23 Гбайт (89%)
Заголовок : L'insegnante viene a casa
Библиотека кодирования : x264 core 125 r2208 d9d2288
Настройки программы : cabac=1 / ref=8 / deblock=1:-1:-1 / analyse=0x3:0x133 / me=umh / subme=9 / psy=1 / psy_rd=1.00:0.10 / mixed_ref=1 / me_range=32 / chroma_me=1 / trellis=2 / 8x8dct=1 / cqm=0 / deadzone=21,11 / fast_pskip=0 / chroma_qp_offset=-3 / threads=6 / lookahead_threads=1 / sliced_threads=0 / nr=0 / decimate=1 / interlaced=0 / bluray_compat=0 / constrained_intra=0 / bframes=3 / b_pyramid=2 / b_adapt=2 / b_bias=0 / direct=3 / weightb=1 / open_gop=0 / weightp=2 / keyint=250 / keyint_min=25 / scenecut=40 / intra_refresh=0 / rc_lookahead=60 / rc=2pass / mbtree=1 / bitrate=2040 / ratetol=1.0 / qcomp=0.60 / qpmin=10 / qpmax=51 / qpstep=4 / cplxblur=20.0 / qblur=0.5 / ip_ratio=1.40 / aq=1:1.00
Язык : Italian
Аудио
Идентификатор : 2
Формат : AC-3
Формат/Информация : Audio Coding 3
Расширение режима : CM (complete main)
Идентификатор кодека : A_AC3
Продолжительность : 1 ч. 28 м.
Вид битрейта : Постоянный
Битрейт : 192 Кбит/сек
Каналы : 2 канала
Расположение каналов : Front: L R
Частота : 48,0 КГц
Битовая глубина : 16 бит
Метод сжатия : С потерями
Размер потока : 121 Мбайт (9%)
Заголовок : Одноголосый закадровый (Вячеслав Котов)
Язык : Russian
Скриншоты:                    
Вне форума [Профиль] [ЛС]
Похожие темы
Форум Тема Автор Торрент Отв. Посл. сообщение
./templates/default/images/folder_dl.gif Компьютерная литература Алексей Гладкий | 1С: Зарплата и управление персоналом 8.2. Понятный самоучитель для начинающих [2012] [PDF] Varius
1 | 0

0 | 2376

29

2013-07-26 04:58
Varius Последнее
./templates/default/images/folder_dl.gif Компьютерная литература Василий Леонов | Простой и понятный самоучитель Word и Excel (2016) [PDF] UndegraundMen
1 | 0

0 | 523

12

2013-09-03 23:02
UndegraundMen Последнее
./templates/default/images/folder_dl.gif Компьютерная литература Николай Полещук | Самоучитель AutoCAD 2014 + CD (2014) [PDF] Omen
1 | 0

0 | 1412

28

2014-11-14 15:45
Omen Последнее
./templates/default/images/folder_dl.gif Компьютерная литература А. Васильев, И. Телина | Расчеты в Excel 2007. Финансы, экономика и бухгалтерия. Самоучитель (2008) [PDF] Omen
1 | 0

0 | 903

25

2014-11-16 14:15
Omen Последнее
./templates/default/images/folder_dl.gif Бизнес, Право, Экономика, Финансы Анна Моисеева, Сергей Тихоненко | Как купить квартиру выгодно. Потратьте минимум — получите максимум (2015) [EPUB] moralis
1 | 0

0 | 148

3

2016-04-10 22:22
moralis Последнее
./templates/default/images/folder_dl.gif Учебники, справочники, энциклопедии и словари Ксения Аниашвили, Игорь Гусев, Василина Губина - Покажи мне как. 777 самоучителей в одной книге [2016, PDF] XP1971
1 | 0

0 | 373

2

2016-11-06 00:10
XP1971 Последнее
Показать сообщения:    
Ответить на тему

Текущее время: Сегодня 14:50

Часовой пояс: GMT + 3



Вы не можете начинать темы
Вы не можете отвечать на сообщения
Вы не можете редактировать свои сообщения
Вы не можете удалять свои сообщения
Вы не можете голосовать в опросах
Вы не можете прикреплять файлы к сообщениям
Вы не можете скачивать файлы