Сегодня идет свободное скачивание без начисления Download

Братья Ньютон / The Newton Boys (Ричард Линклейтер) (боевик, драма, криминал, вестерн, история 1998) BDRip

Ответить на тему
 
Автор
Сообщение

Omen ®

Стаж: 4 года 1 месяц

Сообщений: 194359

Торрент-статистика

Пост 28-Июл-2013 12:43

[Цитировать]

Братья Ньютон / The Newton Boys -«История самых успешных грабителей банков Америки.»- Год выпуска: 1998
Жанр: боевик, драма, криминал, вестерн, история
Описание фильма:
Однажды четырем молодым братьям-южанам надоело влачить нищенское существование и зарабатывать скудные крохи тяжелым трудом. Большие деньги были совсем рядом, братья уже чувствовали их запах. Для того, чтобы заполучить заветные зеленые купюры, нужно было просто немного наглости и куража. А потом уже весь мир будет у тебя в кармане…
За пять лет семейная банда Ньютонов с успехом опустошила восемьдесят банков в США и Канаде. Для триумфа им не доставало лишь ограбления, которое смогло бы занять место в истории криминалистики. Именно его братья и задумали совершить…
Режиссер: Ричард Линклейтер
Актеры: Мэттью МакКонахи, Скит Ульрих, Этан Хоук, Гэйл Кронау, Винсент Д`Онофрио, Джена Карам, Джулианна Маргулис, Кэйси МакОлиффи, Дуайт Йоакам, Чарльз Ганнинг
Продолжительность: 02:02:30
Качество видео: BDRip
Перевод: Профессиональный, многоголосый закадровый (Премьер) + Профессиональный, двуголосый закадровый - (Украинский - КІНО) + Профессиональный, двухголосый закадровый (R5)

Дата мировой премьеры: 14 марта 1998
Дата выхода DVD релиза: 27 августа 2009
Видеокодек: Xvid
Битрейт видео: ~1449 kbps
Размер кадра: 720x304
Audio #1: 48 kHz, AC3 Dolby Digital, 2/0 (L,R) ch, ~192 kbps - Профессиональный (многоголосый закадровый)Премьер
Audio #2: 48 kHz, AC3 Dolby Digital, 3/2 (L,C,R,l,r) + LFE ch, ~448 kbps - Профессиональный (двухголосый закадровый)-(Украинский - КІНО)
Audio #3: 48 kHz, AC3 Dolby Digital, 3/2 (L,C,R,l,r) + LFE ch, ~448 kbps - Оригинал (Английский)
Audio #4: 48 kHz, AC3 Dolby Digital, 3/2 (L,C,R,l,r) + LFE ch, ~448 kbps - Профессиональный (двухголосый закадровый) R5 / внешняя

&

MI

Общее
Полное имя : D:\Рипы\The.Newton.Boys.1998.BDRip.2xRus.Ukr.Eng\The Newton Boys.1998.BDRip.avi
Формат : AVI
Формат/Информация : Audio Video Interleave
Профиль формата : OpenDML
Размер файла : 2,19 Гбайт
Продолжительность : 2 ч. 2 м.
Общий поток : 2560 Кбит/сек
Название фильма : The Newton Boys.1998.BDRip
Режиссёр : rip by maygli
Программа кодирования : VirtualDubModRus 1.5.10.2 (build 2542/release)
Правообладатель : ... (RG Rulya74)
Видео
Идентификатор : 0
Формат : MPEG-4 Visual
Профиль формата : Advanced [email protected]
Параметр BVOP формата : 1
Параметр QPel формата : Нет
Параметр GMC формата : Без точки перехода
Параметр матрицы формата : Выборочная
Режим смешивания : Сжатый битовый поток
Идентификатор кодека : XVID
Идентификатор кодека/Подсказка : XviD
Продолжительность : 2 ч. 2 м.
Битрейт : 1449 Кбит/сек
Ширина : 720 пикселей
Высота : 304 пикселя
Соотношение сторон : 2,35:1
Частота кадров : 23,976 кадра/сек
Цветовое пространство : YUV
Субдискретизация насыщенности : 4:2:0
Битовая глубина : 8 бит
Тип развёртки : Прогрессивная
Метод сжатия : С потерями
Бит/(Пиксели*Кадры) : 0.276
Размер потока : 1,24 Гбайт (57%)
Библиотека кодирования : XviD 65
Аудио #1
Идентификатор : 1
Формат : AC-3
Формат/Информация : Audio Coding 3
Расширение режима : CM (complete main)
Параметр Endianness формата : Big
Идентификатор кодека : 2000
Продолжительность : 2 ч. 2 м.
Вид битрейта : Постоянный
Битрейт : 192 Кбит/сек
Каналы : 2 канала
Расположение каналов : Front: L R
Частота : 48,0 КГц
Битовая глубина : 16 бит
Метод сжатия : С потерями
Размер потока : 168 Мбайт (7%)
Выравнивание : Разделение по промежуткам
Продолжительность промежутка : 42 мс. (1,00 видеокадр)
Время предзагрузки промежутка : 500 мс.
Аудио #2
Идентификатор : 2
Формат : AC-3
Формат/Информация : Audio Coding 3
Расширение режима : CM (complete main)
Параметр Endianness формата : Big
Идентификатор кодека : 2000
Продолжительность : 2 ч. 2 м.
Вид битрейта : Постоянный
Битрейт : 448 Кбит/сек
Каналы : 6 каналов
Расположение каналов : Front: L C R, Side: L R, LFE
Частота : 48,0 КГц
Битовая глубина : 16 бит
Метод сжатия : С потерями
Размер потока : 392 Мбайт (17%)
Выравнивание : Разделение по промежуткам
Продолжительность промежутка : 42 мс. (1,00 видеокадр)
Время предзагрузки промежутка : 500 мс.
Аудио #3
Идентификатор : 3
Формат : AC-3
Формат/Информация : Audio Coding 3
Расширение режима : CM (complete main)
Параметр Endianness формата : Big
Идентификатор кодека : 2000
Продолжительность : 2 ч. 2 м.
Вид битрейта : Постоянный
Битрейт : 448 Кбит/сек
Каналы : 6 каналов
Расположение каналов : Front: L C R, Side: L R, LFE
Частота : 48,0 КГц
Битовая глубина : 16 бит
Метод сжатия : С потерями
Размер потока : 393 Мбайт (17%)
Выравнивание : Разделение по промежуткам
Продолжительность промежутка : 42 мс. (1,00 видеокадр)
Время предзагрузки промежутка : 500 мс.
Общее
Полное имя : D:\Рипы\The.Newton.Boys.1998.BDRip.2xRus.Ukr.Eng\The Newton Boys.1998.BDRip.DVO.R5.ac3
Формат : AC-3
Формат/Информация : Audio Coding 3
Размер файла : 393 Мбайт
Продолжительность : 2 ч. 2 м.
Режим общего битрейта : Постоянный
Общий поток : 448 Кбит/сек
Аудио
Формат : AC-3
Формат/Информация : Audio Coding 3
Расширение режима : CM (complete main)
Параметр Endianness формата : Big
Продолжительность : 2 ч. 2 м.
Вид битрейта : Постоянный
Битрейт : 448 Кбит/сек
Каналы : 6 каналов
Расположение каналов : Front: L C R, Side: L R, LFE
Частота : 48,0 КГц
Битовая глубина : 16 бит
Метод сжатия : С потерями
Размер потока : 393 Мбайт (100%)
Скриншоты:
           
Вне форума [Профиль] [ЛС]
Показать сообщения:    
Ответить на тему

Текущее время: Сегодня 01:13

Часовой пояс: GMT + 3



Вы не можете начинать темы
Вы не можете отвечать на сообщения
Вы не можете редактировать свои сообщения
Вы не можете удалять свои сообщения
Вы не можете голосовать в опросах
Вы не можете прикреплять файлы к сообщениям
Вы не можете скачивать файлы