Сегодня идет свободное скачивание без начисления Download

Истребители «Зеро»: Великое воздушное сражение / Zero Fighters: Great Air Battle / Zero faita dai kusen (Сиро Моритани) (Военный, Драма, 1966) DVDRip

Ответить на тему
 
Автор
Сообщение

_Night Speed_33rus ®

Пол:

Стаж: 3 года 10 месяцев

Сообщений: 70

Откуда: Владимир

Торрент-статистика

Пост 29-Июл-2013 10:28

[Цитировать]

Истребители «Зеро»: Великое воздушное сражение + Бонус / Zero Fighters: Great Air Battle / Zero faita dai kusen- Год выпуска: 1966
Жанр: Военный, Драма
Описание фильма:
Гибель адмирала Ямамото в 1943 году, нанесла огромный удар по духу японских войск.
Американские войска успешно наступают в южном районе Тихого океана, захватывая один остров за другим. Отряд пилотов истребителей «Zero», расположенный на одном из островов, выполняет бомбардировки аэродромов и позиций противника, вступая в смертельные схватки с американскими истребителями и бомбардировщиками, пытаясь переломить ход войны… В одном из главных персонажей, явно угадывается знаменитый японский ас Сабуро Сакаи (четвёртый по числу побед японский ас (в Японии не велись личные списки воздушных побед, поэтому принято использование американских подсчётов его побед — 64 сбитых)).
Режиссер: Сиро Моритани
Актеры: Юдзо Каяма, Макото Сайто, Тацуёси Эхара, Ёсио Цутия, Тадао Накамару, Минору Чиаки, Сусуму Фудзита, Акира Кубо, Хироши Татикава, Исао Тамагава.
Продолжительность: 01:31:48
Качество видео: DVDRip
Перевод: Одноголосый закадровый
Доп. информация: Бонус: интересный документальный фильм о создании самого фильма (японский язык)

Видеокодек: DivX5
Битрейт видео: ~1953 Кбит/с
Размер кадра: 704x304
Аудиокодек: AC3, (2 канала, стерео)
Битрейт аудио: 192 Кбит/с
Сэмпл: Ссылка
Трейлер: Ссылка
Трейлер: Ссылка

Фильм - MediaInfo:

General
Complete name : E:\Торенты\/*spam*/\Зеро\Istrebiteli.Zero.Velikoe.vozdushnoe.srazhenie.DVDRip.alf62\Istrebiteli.Zero.Velikoe.vozdushnoe.srazhenie.1966.DivX.DVDRip.alf62.avi
Format : AVI
Format/Info : Audio Video Interleave
File size : 1.38 GiB
Duration : 1h 31mn
Overall bit rate : 2 151 Kbps
Writing application : VirtualDubMod 1.5.10.3 | www.virtualdub-fr.org || (build 2550/release)
Writing library : VirtualDubMod build 2550/release
Video
ID : 0
Format : MPEG-4 Visual
Format profile : Advanced [email protected]
Format settings, BVOP : 2
Format settings, QPel : No
Format settings, GMC : No warppoints
Format settings, Matrix : Default (MPEG)
Codec ID : DX50
Codec ID/Hint : DivX 5
Duration : 1h 31mn
Bit rate : 1 950 Kbps
Width : 704 pixels
Height : 304 pixels
Display aspect ratio : 2.35:1
Frame rate : 23.976 fps
Color space : YUV
Chroma subsampling : 4:2:0
Bit depth : 8 bits
Scan type : Progressive
Compression mode : Lossy
Bits/(Pixel*Frame) : 0.380
Stream size : 1.25 GiB (91%)
Writing library : XviD 73
Audio
ID : 1
Format : AC-3
Format/Info : Audio Coding 3
Mode extension : CM (complete main)
Format settings, Endianness : Big
Codec ID : 2000
Duration : 1h 31mn
Bit rate mode : Constant
Bit rate : 192 Kbps
Channel(s) : 2 channels
Channel positions : Front: L R
Sampling rate : 48.0 KHz
Bit depth : 16 bits
Compression mode : Lossy
Stream size : 126 MiB (9%)
Alignment : Split accross interleaves
Interleave, duration : 42 ms (1.00 video frame)
Interleave, preload duration : 500 ms

Бонус - MediaInfo:

General
Complete name : E:\Торенты\/*spam*/\Зеро\Istrebiteli.Zero.Velikoe.vozdushnoe.srazhenie.DVDRip.alf62\Istrebiteli.Zero.Velikoe.vozdushnoe.srazhenie.Bonus.DivX.DVDRip.alf62.avi
Format : AVI
Format/Info : Audio Video Interleave
File size : 315 MiB
Duration : 20mn 28s
Overall bit rate : 2 151 Kbps
Writing application : VirtualDubMod 1.5.10.3 | www.virtualdub-fr.org || (build 2550/release)
Writing library : VirtualDubMod build 2550/release
Video
ID : 0
Format : MPEG-4 Visual
Format profile : Advanced [email protected]
Format settings, BVOP : 2
Format settings, QPel : No
Format settings, GMC : No warppoints
Format settings, Matrix : Default (MPEG)
Codec ID : DX50
Codec ID/Hint : DivX 5
Duration : 20mn 28s
Bit rate : 1 950 Kbps
Width : 704 pixels
Height : 528 pixels
Display aspect ratio : 4:3
Frame rate : 23.976 fps
Color space : YUV
Chroma subsampling : 4:2:0
Bit depth : 8 bits
Scan type : Progressive
Compression mode : Lossy
Bits/(Pixel*Frame) : 0.219
Stream size : 285 MiB (91%)
Writing library : XviD 73
Audio
ID : 1
Format : AC-3
Format/Info : Audio Coding 3
Mode extension : CM (complete main)
Format settings, Endianness : Big
Codec ID : 2000
Duration : 20mn 28s
Bit rate mode : Constant
Bit rate : 192 Kbps
Channel(s) : 2 channels
Channel positions : Front: L R
Sampling rate : 48.0 KHz
Bit depth : 16 bits
Compression mode : Lossy
Stream size : 28.1 MiB (9%)
Alignment : Split accross interleaves
Interleave, duration : 42 ms (1.00 video frame)
Interleave, preload duration : 500 ms
Скриншоты:
         
         
Вне форума [Профиль] [ЛС]
Показать сообщения:    
Ответить на тему

Текущее время: Сегодня 09:48

Часовой пояс: GMT + 3



Вы не можете начинать темы
Вы не можете отвечать на сообщения
Вы не можете редактировать свои сообщения
Вы не можете удалять свои сообщения
Вы не можете голосовать в опросах
Вы не можете прикреплять файлы к сообщениям
Вы не можете скачивать файлы