Сегодня идет свободное скачивание без начисления Download

Последний из племени людей-псов / Last of the Dogmen (Тэб Мёрфи) (Приключения, Вестерн, 1995) DVDRip [H.264]

Ответить на тему
 
Автор
Сообщение

_Night Speed_33rus ®

Пол:

Стаж: 3 года 11 месяцев

Сообщений: 70

Откуда: Владимир

Торрент-статистика

Пост 29-Июл-2013 10:33

[Цитировать]

Последний из племени людей-псов / Last of the Dogmen - Год выпуска: 1995
Производство: США
Слоган: «A secret lost in time for over 130 years is about to be discovered.»
Жанр: Приключения, Вестерн-Описание фильма: Опытнейший следопыт Льюис выслеживает трех беглых преступников. Но кто-то его опередил — он находит лишь следы крови да… индейскую стрелу. Предприняв собственное расследование, Льюис обращается к профессору — археологу, оказавшемуся привлекательной женщиной Лилиан. По стреле она определяет, что трех каторжников могли убить только воины Шейенских псов… но никто из этого племени не уцелел после печально известной резни 1864 года в Сэнд Крик! Убежденные в возможности существования «затерянного мира», Льюис и Лилиан отправляются на его поиски...-Режиссер: Тэб Мёрфи
Актеры: Том Беренджер (Lewis Gates), Барбара Херши (Prof. Lillian Diane Sloan), Кертвуд Смит (Sheriff Deegan), Стив Ривис (Yellow Wolf), Эндрю Миллер (Briggs), Грегори Скотт Камминс (Sears), Марк Бун Джуниор (Tattoo), Хелен Кэлахэзен (Yellow Wolf's Wife), Юджин Блэкбир (Spotted Elk), Доун Лаван (Indian Girl), Сайдел Стэндинг Элк (Lean Bear), Хантер Бодин (Kid)-Продолжительность: 01:52:51
Качество видео: DVDRip
Перевод: Многоголосый закадровый
Язык субтитров: отсутствуют- -Видеокодек: MPEG-4 AVC/H.264
Битрейт видео: ~2826 kbps
Размер кадра: [email protected]
Аудио : Русский: AC3 ; 5.1 ; 448 kbps
Аудио : Англ-ий: AC3 ; 2.0 ; 192 kbps
-

MediaInfo:

General
Unique ID : 248383016536262196043651450636165317892 (0xBADCD43442DA2A66A03C8B6503A20504)
Complete name : D:\Торрент\Posledniy.iz.plemeni.lyudey-psov.1995.x264.DVDRip.mkv
Format : Matroska
Format version : Version 2
File size : 2.73 GiB
Duration : 1h 52mn
Overall bit rate : 3 467 Kbps
Encoded date : UTC 2013-07-25 16:46:31
Writing application : mkvmerge v5.0.1 ('Es ist Sommer') built on Oct 24 2011 19:45:06
Writing library : libebml v1.2.2 + libmatroska v1.3.0
Video
ID : 1
Format : AVC
Format/Info : Advanced Video Codec
Format profile : [url=mailto:[email protected]][email protected][/url]
Format settings, CABAC : Yes
Format settings, ReFrames : 6 frames
Codec ID : V_MPEG4/ISO/AVC
Duration : 1h 52mn
Bit rate : 2 826 Kbps
Width : 720 pixels
Height : 576 pixels
Display aspect ratio : 16:9
Frame rate : 25.000 fps
Standard : PAL
Color space : YUV
Chroma subsampling : 4:2:0
Bit depth : 8 bits
Scan type : Progressive
Bits/(Pixel*Frame) : 0.273
Stream size : 2.17 GiB (80%)
Writing library : x264 core 133 r2334 a3ac64b
Encoding settings : cabac=1 / ref=6 / deblock=1:-1:-1 / analyse=0x3:0x133 / me=umh / subme=7 / psy=1 / psy_rd=1.00:0.00 / mixed_ref=1 / me_range=16 / chroma_me=1 / trellis=2 / 8x8dct=1 / cqm=0 / deadzone=21,11 / fast_pskip=1 / chroma_qp_offset=-2 / threads=6 / lookahead_threads=2 / sliced_threads=0 / nr=0 / decimate=1 / interlaced=0 / bluray_compat=0 / constrained_intra=0 / bframes=7 / b_pyramid=2 / b_adapt=2 / b_bias=0 / direct=3 / weightb=1 / open_gop=0 / weightp=1 / keyint=250 / keyint_min=25 / scenecut=40 / intra_refresh=0 / rc_lookahead=40 / rc=2pass / mbtree=1 / bitrate=2826 / ratetol=1.0 / qcomp=0.60 / qpmin=10 / qpmax=51 / qpstep=4 / cplxblur=20.0 / qblur=0.5 / ip_ratio=1.40 / aq=1:1.00
Language : English
Default : Yes
Forced : No
Audio #1
ID : 2
Format : AC-3
Format/Info : Audio Coding 3
Mode extension : CM (complete main)
Codec ID : A_AC3
Duration : 1h 52mn
Bit rate mode : Constant
Bit rate : 448 Kbps
Channel(s) : 6 channels
Channel positions : Front: L C R, Side: L R, LFE
Sampling rate : 48.0 KHz
Bit depth : 16 bits
Compression mode : Lossy
Stream size : 362 MiB (13%)
Default : Yes
Forced : No
Audio #2
ID : 3
Format : AC-3
Format/Info : Audio Coding 3
Mode extension : CM (complete main)
Codec ID : A_AC3
Duration : 1h 52mn
Bit rate mode : Constant
Bit rate : 192 Kbps
Channel(s) : 2 channels
Channel positions : Front: L R
Sampling rate : 48.0 KHz
Bit depth : 16 bits
Compression mode : Lossy
Stream size : 155 MiB (6%)
Default : No
Forced : No
-Скриншоты:
         -
Вне форума [Профиль] [ЛС]
Похожие темы
Форум Тема Автор Торрент Отв. Посл. сообщение
./templates/default/images/folder_dl.gif Фильмы 2011-2016 Последняя любовь на Земле / Perfect Sense (Дэвид МакКензи) [2011 г., драма, мелодрама, DVDRip] Лицензия sassad
1 | 0

0 | 914

26

2011-12-10 20:22
sassad Последнее
./templates/default/images/folder_dl.gif Фильмы 2011-2016 Жизнь после жизни (Александр Будённый) (Мелодрама, Криминал, 2013) HDTVRip Omen
1 | 0

0 | 687

12

2013-06-05 11:42
Omen Последнее
./templates/default/images/folder_dl.gif Кулинария Лариса Абрикосова | Восстановление после вирусных инфекций (2015) [FB2] Omen
1 | 0

0 | 331

9

2015-09-26 16:22
Omen Последнее
./templates/default/images/folder_dl.gif Фильмы 2011-2016 Последний охотник на ведьм / The Last Witch Hunter (Брек Эйснер / Breck Eisner) [2015 г., фэнтези, боевик, приключения, WEB-DLRip] Region_13
1 | 0

2 | 3012

103

2016-02-13 21:34
Dracula Последнее
./templates/default/images/folder_dl.gif Компьютерная литература Михаил Пантаев | Матанализ с человеческим лицом, или Как выжить после предельного перехода. Полный курс математического анализа. Том 2 (2016) [PDF] moralis
1 | 0

0 | 285

7

2016-03-09 21:50
moralis Последнее
./templates/default/images/folder_dl.gif Учебники, справочники, энциклопедии и словари Михаил Пантаев | Матанализ с человеческим лицом, или Как выжить после предельного перехода. Полный курс математического анализа. Том 1 (2015) [PDF] moralis
1 | 0

0 | 303

4

2016-03-09 21:51
moralis Последнее
Показать сообщения:    
Ответить на тему

Текущее время: Сегодня 15:09

Часовой пояс: GMT + 3



Вы не можете начинать темы
Вы не можете отвечать на сообщения
Вы не можете редактировать свои сообщения
Вы не можете удалять свои сообщения
Вы не можете голосовать в опросах
Вы не можете прикреплять файлы к сообщениям
Вы не можете скачивать файлы