Сегодня идет свободное скачивание без начисления Download

Эд из телевизора / EdTV (Рон Ховард / Ron Howard) [1999, комедия, HDTVRip] [DVO] (Премьер Видео Фильм)

Ответить на тему
 
Автор
Сообщение

maxkiller ®

Пол:

Стаж: 3 года 10 месяцев

Сообщений: 282

Торрент-статистика

Пост 30-Июл-2013 11:35

[Цитировать]

Эд из телевизора / EdTV«The story of a nobody everybody is watching»- Год выпуска: 1999
Страна: США
Жанр: Комедия
Продолжительность: 01:57:57
Перевод: Профессиональный (двухголосный, закадровый) [Премьер Видео Фильм]
Субтитры: Нет-Режиссер: Рон Ховард / Ron Howard
В ролях: Мэттью МакКонахи, Дженна Элфмэн, Вуди Харрельсон, Сэлли Кёркленд, Мартин Ландау, Эллен ДеДженерес, Роб Райнер, Деннис Хоппер, Элизабет Херли, Адам Голдберг и др.-Описание: Эд Пекурни — обыкновенный парень, работающий в видео-прокате. Ближайшее будущее в роли скромного служащего не обещает никаких приятных сюрпризов, и он решается на рискованное мероприятие. Понимая, что терять ему нечего, Эд соглашается стать звездой нового телевизионного шоу.
Жизнь Эда будут снимать 24 часа в сутки без перерыва: зрители будут следить за тем, как он работает, ест, спит и ходит в туалет. Никто и не подозревал, что смелая экспериментальная телепередача будет сногсшибательно популярна, а сам Эд станет национальной знаменитостью…
-Бюджет: $80 000 000
Сборы в США: $22 431 897 | Сборы в Мире: + $12 811 000 = $35 242 897
Рейтинг MPAA: PG-13 (Детям до 13 лет просмотр не желателен!)
-Качество видео: HDTVRip
Формат видео: AVI
Видео кодек: XviD
Аудио кодек: AC3
Видео: 688x384 (1.79:1), 25 fps, XviD build 73 ~1565 kbps avg, 0.24 bit/pixel
Аудио: 48 kHz, AC3 Dolby Digital, 2/0 (L,R) ch, ~192.00 kbps

MediaInfo

Код:
General
Complete name                            : C:\Edtv.1999.HDTV.1080i\BDMV\STREAM\Ed_iz_televizora.1999.EdTVRip.avi
Format                                   : AVI
Format/Info                              : Audio Video Interleave
File size                                : 1.46 GiB
Duration                                 : 1h 57mn
Overall bit rate                         : 1 768 Kbps
Movie name                               : EdTV (1999) - HDTVRip by Juvelir
Writing application                      : VirtualDubMod 1.5.10.3 (build 2550/release)
Video
ID                                       : 0
Format                                   : MPEG-4 Visual
Format profile                           : Advanced [email protected]
Format settings, BVOP                    : 1
Format settings, QPel                    : No
Format settings, GMC                     : No warppoints
Format settings, Matrix                  : Custom
Codec ID                                 : XVID
Codec ID/Hint                            : XviD
Duration                                 : 1h 57mn
Bit rate                                 : 1 566 Kbps
Width                                    : 688 pixels
Height                                   : 384 pixels
Display aspect ratio                     : 16:9
Frame rate                               : 25.000 fps
Color space                              : YUV
Chroma subsampling                       : 4:2:0
Bit depth                                : 8 bits
Scan type                                : Progressive
Compression mode                         : Lossy
Bits/(Pixel*Frame)                       : 0.237
Stream size                              : 1.29 GiB (89%)
Writing library                          : XviD 73
Audio
ID                                       : 1
Format                                   : AC-3
Format/Info                              : Audio Coding 3
Mode extension                           : CM (complete main)
Format settings, Endianness              : Big
Codec ID                                 : 2000
Duration                                 : 1h 57mn
Bit rate mode                            : Constant
Bit rate                                 : 192 Kbps
Channel(s)                               : 2 channels
Channel positions                        : Front: L R
Sampling rate                            : 48.0 KHz
Bit depth                                : 16 bits
Compression mode                         : Lossy
Stream size                              : 162 MiB (11%)
Alignment                                : Split accross interleaves
Interleave, duration                     : 40 ms (1.00 video frame)
Interleave, preload duration             : 500 ms
Title                                    : DVO (Премьер Видео Фильм)

Скриншоты

     
Вне форума [Профиль] [ЛС]
Показать сообщения:    
Ответить на тему

Текущее время: Сегодня 22:20

Часовой пояс: GMT + 3



Вы не можете начинать темы
Вы не можете отвечать на сообщения
Вы не можете редактировать свои сообщения
Вы не можете удалять свои сообщения
Вы не можете голосовать в опросах
Вы не можете прикреплять файлы к сообщениям
Вы не можете скачивать файлы