Сегодня идет свободное скачивание без начисления Download

Эксперимент с ужасом / Experiment in Terror (Блейк Эдвардс / Blake Edwards) [1962, триллер, детектив, BDRip] [MVO] (1-й канал)

Ответить на тему
 
Автор
Сообщение

maxkiller ®

Пол:

Стаж: 3 года 10 месяцев

Сообщений: 282

Торрент-статистика

Пост 01-Авг-2013 14:50

[Цитировать]

Эксперимент с ужасом / Experiment in Terror
Год выпуска: 1962
Страна: США
Студия: Columbia Pictures Corporation / Geoffrey-Kate Productions
Жанр: триллер, детектив
Продолжительность: 02:03:21
Перевод : Профессиональный (многоголосый закадровый) [1-й канал]
Режиссер: Блейк Эдвардс / Blake Edwards
Сценарий: Гордон Гордон, Милдред Гордон
Продюсер: Блейк Эдвардс, Дон Питерс
Оператор: Филип Х. Лэтроп
Композитор: Генри Манчини
Художник: Роберт Петерсон, Джеймс Кроу
Монтаж: Патрик МакКормак
В ролях: Гленн Форд, Ли Ремик, Стефани Пауэрс, Рой Пул, Нед Гласс, Анита Лу, Патрисия Хьюстон, Гилберт Грин, Клифтон Джеймс, Аль Авалон, Уильям Брайант, Росс Мартин, Джоанн Барис, Барбара Коллентайн, Клэр Грисволд, Мари Линн
Описание:
Сан-Франциско. Молодую сотрудницу банка Келли Шервуд, поздно возвращавшуюся домой, захватывает неизвестный мужчина. Он приказывает ей украсть из банка 100 000 долларов. Если Келли откажется - ее младшую сестру Тоби ждет смерть. Преступник знает все вплоть до самых мельчайших подробностей о жизни семьи Шервуд. В отчаянии Келли обращается в ФБР, но преступник, сразу же узнав об этом, похищает Тоби. Сотрудники ФБР отчаянно пытаются спасти девушку, но похититель хитер и коварен...


Автор рипа: Дед Киномеханик
Качество: BDRip
Формат: AVI
Видео кодек: XviD
Аудио кодек: MP3
Видео: 720x400 (1.80:1), 23.980 fps, XviD build 50 ~1797 kbps avg, 0.26 bit/pixel
Аудио: 44.100 kHz, MPEG Layer 3, 2 ch, ~256.00 kbps avg [MVO]

MediaInfo

E:INTERNET Эксперимент с ужасом.1962..BDRip.[MVO] (OPT).avi
General
Complete name : E:INTERNET Эксперимент с ужасом.1962..BDRip.[MVO] (OPT).avi
Format : AVI
Format/Info : Audio Video Interleave
File size : 1.78 GiB
Duration : 2h 3mn
Overall bit rate : 2 066 Kbps
Writing application : VirtualDubMod 1.5.10.3 (build 2550/release)
Writing library : VirtualDubMod build 2550/release
Video #0
ID : 0
Format : xvid
Codec ID : xvid
Duration : 2h 3mn
Bit rate : 1 798 Kbps
Width : 720 pixels
Height : 400 pixels
Display aspect ratio : 16:9
Frame rate : 23.976 fps
Bits/(Pixel*Frame) : 0.260
Stream size : 1.55 GiB (87%)
Audio #1
ID : 1
Format : MPEG Audio
Format version : Version 1
Format profile : Layer 3
Mode : Joint stereo
Mode extension : MS Stereo
Codec ID : 55
Codec ID/Hint : MP3
Duration : 2h 3mn
Bit rate mode : Constant
Bit rate : 256 Kbps
Channel(s) : 2 channels
Sampling rate : 44.1 KHz
Compression mode : Lossy
Stream size : 226 MiB (12%)
Alignment : Aligned on interleaves
Interleave, duration : 26 ms (0.63 video frame)
Interleave, preload duration : 522 ms

Скриншоты

       
Вне форума [Профиль] [ЛС]
Похожие темы
Форум Тема Автор Торрент Отв. Посл. сообщение
./templates/default/images/folder_dl.gif Обучающее видео "Специалист" | Как стать экспертом в AutoCAD (2014) [PCRec] Omen
1 | 0

1 | 1085

40

2014-03-06 22:30
uschakov.yura Последнее
./templates/default/images/folder_dl.gif Обучающее видео Александр Заморин | Ретушёр 2015 - Экспертный уровень (2014) PCRec Omen
1 | 0

8 | 3762

89

2015-07-07 08:52
kodminik Последнее
Показать сообщения:    
Ответить на тему

Текущее время: Сегодня 14:57

Часовой пояс: GMT + 3



Вы не можете начинать темы
Вы не можете отвечать на сообщения
Вы не можете редактировать свои сообщения
Вы не можете удалять свои сообщения
Вы не можете голосовать в опросах
Вы не можете прикреплять файлы к сообщениям
Вы не можете скачивать файлы