Сегодня идет свободное скачивание без начисления Download

Выскочка / Election ( Александр Пэйн ) (1999, Комедия, Драма ) BDRip

Ответить на тему
 
Автор
Сообщение

Витек1 ®

Пол:

Стаж: 3 года 10 месяцев

Сообщений: 459

Откуда: Житомир

Торрент-статистика

Пост 04-Авг-2013 12:20

[Цитировать]

Выскочка / Election -«Чтение, письмо, месть.»- Год выпуска: 1999
Жанр: Комедия, Драма
Описание фильма:
Настоящая война развернулась между самой активной и нахальной ученицей школы Харвер Хай Трэйси Флик и ее учителем Джимом МакАлистером. Выскочка Трэйси хочет во что бы то ни стало быть избранной президентом школьного совета, а мистер МакАлистер, зная вероломный и склочный характер Флик, готов пойти на все, чтобы этого не случилось. К сожалению, мистер МакАлистер даже не представлял, с кем связался…
Режиссер: Александр Пэйн
Актеры: Мэттью Бродерик, Риз Уизерспун, Крис Клейн, Джесика Кэмпбелл, Марк Харелик, Фил Ривз, Молли Хэйгэн, Делани Дрисколл, Коллин Кэмп, Фрэнки Инграссия
Продолжительность: 01:42:57
Качество видео: BDRip
Перевод: Профессиональный, двухголосый закадровый (iTunes Russia) + Профессиональный, многоголосый закадровый (Украинский - Новый Канал) + Профессиональный, многоголосый закадровый
Язык субтитров: Русский, Английский
Вид субтитров: Отдельным файлом

Дата мировой премьеры: 23 апреля 1999
Дата выхода DVD релиза: 5 мая 2010
Видеокодек: Xvid
Битрейт видео: ~1814 kbps
Размер кадра: 720x304
Audio #1: 48 kHz, AC3 Dolby Digital, 3/2 (L,C,R,l,r) + LFE ch, ~384 kbps - Профессиональный (двухголосый закадровый) - iTunes Russia
Audio #2: 48 kHz, AC3 Dolby Digital, 2/0 (L,R) ch, ~224 kbps - Профессиональный (многоголосый закадровый) - (Украинский - Новый Канал)
Audio #3: 48 kHz, AC3 Dolby Digital, 3/2 (L,C,R,l,r) ch, ~448 kbps - Оригинал (Английский)
Audio #4: 48 kHz, AC3 Dolby Digital, 2/0 (L,R) ch, ~192 kbps - Профессиональный (многоголосый закадровый) / внешняя
&

MI

Общее
Полное имя : E:\Фильмы М\Election.1999.BDRip.2xRus.Ukr.Eng\Election.1999.BDRip.avi
Формат : AVI
Формат/Информация : Audio Video Interleave
Профиль формата : OpenDML
Размер файла : 2,08 Гбайт
Продолжительность : 1 ч. 42 м.
Общий поток : 2894 Кбит/сек
Название фильма : Election.1999.BDRip
Режиссёр : rip by maygli
Программа кодирования : VirtualDubModRus 1.5.10.2 (build 2542/release)
Правообладатель : ... (RG Rulya74)
Видео
Идентификатор : 0
Формат : MPEG-4 Visual
Профиль формата : Advanced [email protected]
Параметр BVOP формата : 1
Параметр QPel формата : Нет
Параметр GMC формата : Без точки перехода
Параметр матрицы формата : Выборочная
Режим смешивания : Сжатый битовый поток
Идентификатор кодека : XVID
Идентификатор кодека/Подсказка : XviD
Продолжительность : 1 ч. 42 м.
Битрейт : 1814 Кбит/сек
Ширина : 720 пикселей
Высота : 304 пикселя
Соотношение сторон : 2,35:1
Частота кадров : 23,976 кадра/сек
Цветовое пространство : YUV
Субдискретизация насыщенности : 4:2:0
Битовая глубина : 8 бит
Тип развёртки : Прогрессивная
Метод сжатия : С потерями
Бит/(Пиксели*Кадры) : 0.346
Размер потока : 1,30 Гбайт (63%)
Библиотека кодирования : XviD 65
Аудио #1
Идентификатор : 1
Формат : AC-3
Формат/Информация : Audio Coding 3
Расширение режима : CM (complete main)
Параметр Endianness формата : Big
Идентификатор кодека : 2000
Продолжительность : 1 ч. 42 м.
Вид битрейта : Постоянный
Битрейт : 384 Кбит/сек
Каналы : 6 каналов
Расположение каналов : Front: L C R, Side: L R, LFE
Частота : 48,0 КГц
Битовая глубина : 16 бит
Метод сжатия : С потерями
Размер потока : 283 Мбайт (13%)
Выравнивание : Разделение по промежуткам
Продолжительность промежутка : 42 мс. (1,00 видеокадр)
Время предзагрузки промежутка : 500 мс.
Заголовок : Профессиональный (двухголосый закадровый) - iTunes Russia
Аудио #2
Идентификатор : 2
Формат : AC-3
Формат/Информация : Audio Coding 3
Расширение режима : CM (complete main)
Параметр Endianness формата : Big
Идентификатор кодека : 2000
Продолжительность : 1 ч. 42 м.
Вид битрейта : Постоянный
Битрейт : 224 Кбит/сек
Каналы : 2 канала
Расположение каналов : Front: L R
Частота : 48,0 КГц
Битовая глубина : 16 бит
Метод сжатия : С потерями
Размер потока : 165 Мбайт (8%)
Выравнивание : Разделение по промежуткам
Продолжительность промежутка : 42 мс. (1,00 видеокадр)
Время предзагрузки промежутка : 500 мс.
Заголовок : Профессиональный (многоголосый закадровый) - (Украинский - Новый Канал)
Аудио #3
Идентификатор : 3
Формат : AC-3
Формат/Информация : Audio Coding 3
Расширение режима : CM (complete main)
Параметр Endianness формата : Big
Идентификатор кодека : 2000
Продолжительность : 1 ч. 42 м.
Вид битрейта : Постоянный
Битрейт : 448 Кбит/сек
Каналы : 5 каналов
Расположение каналов : Front: L C R, Side: L R
Частота : 48,0 КГц
Битовая глубина : 16 бит
Метод сжатия : С потерями
Размер потока : 330 Мбайт (15%)
Выравнивание : Разделение по промежуткам
Продолжительность промежутка : 42 мс. (1,00 видеокадр)
Время предзагрузки промежутка : 500 мс.
Заголовок : Оригинал (Английский)
Общее
Полное имя : E:\Фильмы М\Election.1999.BDRip.2xRus.Ukr.Eng\Election.1999.BDRip.MVO.ac3
Формат : AC-3
Формат/Информация : Audio Coding 3
Размер файла : 141 Мбайт
Продолжительность : 1 ч. 42 м.
Режим общего битрейта : Постоянный
Общий поток : 192 Кбит/сек
Аудио
Формат : AC-3
Формат/Информация : Audio Coding 3
Расширение режима : CM (complete main)
Параметр Endianness формата : Big
Продолжительность : 1 ч. 42 м.
Вид битрейта : Постоянный
Битрейт : 192 Кбит/сек
Каналы : 2 канала
Расположение каналов : Front: L R
Частота : 48,0 КГц
Битовая глубина : 16 бит
Метод сжатия : С потерями
Размер потока : 141 Мбайт (100%)
Скриншоты:
     
     

_________________
Скачал сам, дай скачать другому!!!Не забудь сказать -
Вне форума [Профиль] [ЛС]
Показать сообщения:    
Ответить на тему

Текущее время: Сегодня 20:58

Часовой пояс: GMT + 3



Вы не можете начинать темы
Вы не можете отвечать на сообщения
Вы не можете редактировать свои сообщения
Вы не можете удалять свои сообщения
Вы не можете голосовать в опросах
Вы не можете прикреплять файлы к сообщениям
Вы не можете скачивать файлы