Сегодня идет свободное скачивание без начисления Download

Фантомы / Phantoms (Джо Чаппелль) (Ужасы, Фантастика, Триллер, 1998) HDRip [H.264]

Ответить на тему
 
Автор
Сообщение

_Night Speed_33rus ®

Пол:

Стаж: 3 года 11 месяцев

Сообщений: 70

Откуда: Владимир

Торрент-статистика

Пост 05-Авг-2013 09:17

[Цитировать]

Фантомы / Phantoms (1998) HDRip- Год выпуска: 1998
Жанр: Ужасы, Фантастика, Триллер
Описание фильма:
Некая страшная сила, дремлющая в недрах земли, однажды пробуждается от сна. Это зловещее Нечто, способное уничтожить целые цивилизации, выбирает себе первую жертву — маленький миролюбивый городок Сноуфилд в штате Колорадо.
В одночасье сотни его жителей умирают ужасной смертью, а горстка оставшихся в живых людей, среди которых две молодые девушки, местный шериф со своим заместителем и известный журналист, вступают в отчаянную схватку со злом. Теперь в их руках — судьба человечества…

Режиссер: Джо Чаппелль
Актеры: Бен Аффлек, Питер О’Тул, Роуз МакГоун, Джоэнна Гоуинг, Лив Шрайбер, Никки Кэтт, Клифтон Пауэлл, Рик Отто, Валери Чоу, Адам Нельсон
Продолжительность: 01:36:05
Качество видео: HDRip
Перевод: Двуголосый закадровый
Язык субтитров: отсутствуют

Дата мировой премьеры: 23 января 1998
Дата релиза на DVD: 12 июля 2011, «West Video»
Видеокодек: MPEG-4 AVC/H.264
Битрейт видео: ~1 799 Kbps
Размер кадра: 1024 х 576
Аудиокодек: AC3 5.1
Битрейт аудио: 384 Кбит/сек

MediaInfo:

Format : Matroska
Format version : Version 2
File size : 1.46 GiB
Duration : 1h 36mn
Overall bit rate : 2 169 Kbps
Encoded date : UTC 2013-08-04 22:59:21
Writing application : mkvmerge v5.3.0 ('I could have danced') built on Feb 9 2012 10:38:07
Writing library : libebml v1.2.3 + libmatroska v1.3.0
Attachment : Yes
Video
ID : 1
Format : AVC
Format/Info : Advanced Video Codec
Format profile : [url=mailto:[email protected]][email protected][/url]
Format settings, CABAC : Yes
Format settings, ReFrames : 5 frames
Codec ID : V_MPEG4/ISO/AVC
Duration : 1h 36mn
Bit rate : 1 799 Kbps
Width : 1 024 pixels
Height : 576 pixels
Display aspect ratio : 16:9
Frame rate mode : Constant
Frame rate : 23.976 fps
Color space : YUV
Chroma subsampling : 4:2:0
Bit depth : 8 bits
Scan type : Progressive
Bits/(Pixel*Frame) : 0.127
Stream size : 1.17 GiB (80%)
Writing library : x264 core 130 r2273 b3065e6
Encoding settings : cabac=1 / ref=5 / deblock=1:-2:-1 / analyse=0x3:0x133 / me=umh / subme=9 / psy=1 / psy_rd=1.01:0.05 / mixed_ref=1 / me_range=24 / chroma_me=1 / trellis=2 / 8x8dct=1 / cqm=0 / deadzone=21,11 / fast_pskip=1 / chroma_qp_offset=-3 / threads=12 / lookahead_threads=1 / sliced_threads=0 / nr=0 / decimate=1 / interlaced=0 / bluray_compat=0 / constrained_intra=0 / bframes=5 / b_pyramid=2 / b_adapt=2 / b_bias=0 / direct=3 / weightb=1 / open_gop=0 / weightp=2 / keyint=240 / keyint_min=23 / scenecut=40 / intra_refresh=0 / rc_lookahead=100 / rc=2pass / mbtree=1 / bitrate=1799 / ratetol=1.0 / qcomp=0.60 / qpmin=0 / qpmax=69 / qpstep=4 / cplxblur=20.0 / qblur=0.5 / ip_ratio=1.40 / aq=1:1.00
Language : English
Default : Yes
Forced : No
Audio
ID : 2
Format : AC-3
Format/Info : Audio Coding 3
Mode extension : CM (complete main)
Format settings, Endianness : Big
Codec ID : A_AC3
Duration : 1h 36mn
Bit rate mode : Constant
Bit rate : 384 Kbps
Channel(s) : 6 channels
Channel positions : Front: L C R, Side: L R, LFE
Sampling rate : 48.0 KHz
Bit depth : 16 bits
Compression mode : Lossy
Delay relative to video : 313ms
Stream size : 264 MiB (18%)
Default : Yes
Forced : No
Скриншоты:
     
Вне форума [Профиль] [ЛС]
Показать сообщения:    
Ответить на тему

Текущее время: Сегодня 17:31

Часовой пояс: GMT + 3



Вы не можете начинать темы
Вы не можете отвечать на сообщения
Вы не можете редактировать свои сообщения
Вы не можете удалять свои сообщения
Вы не можете голосовать в опросах
Вы не можете прикреплять файлы к сообщениям
Вы не можете скачивать файлы