Сегодня идет свободное скачивание без начисления Download

Доктор Пополь / Docteur Popaul (1972) DVDRip [H.264]

Ответить на тему
 
Автор
Сообщение

UndegraundMen ®

Стаж: 3 года 9 месяцев

Сообщений: 28329

Торрент-статистика

Пост 05-Авг-2013 11:00

[Цитировать]

Доктор Пополь / Docteur Popaul (1972) DVDRip [H.264] - Год выпуска: 1972
Жанр: Комедия
Производство: Франция, Италия/Cerito Films, Les Films de la Boétie, Rizzoli Film S.p.a.
Описание фильма:
Повеса и ловелас, азартный игрок и кутила решил поправить свое материальное положение, женившись на какой — нибудь богатенькой дурнушке, будучи уверенным в своей неотразимости.
Но не так все просто, когда страшненькая женушка оказывается хитрой фурией, а лучший друг — ее любовником…
Экранизация рассказа Юбера Монтейе "Убийство на досуге".
Режиссер: Клод Шаброль
Сценарий: Поль Жегофф, Юбер Монтейе
Продюсер: Жорж Казати, Андре Женовес, Ален Бельмондо
Актеры: Жан-Поль Бельмондо, Миа Фэрроу, Лаура Антонелли, Даниэль Лекуртуа, Марлен Аппель, Карло Бартолотта, Мишель Пейрелон, Патрик Прежан, Анри Атталь, Луис Дюрантон
Продолжительность: 01:36:55
Качество видео: DVDRip
Перевод: Многоголосый закадровый
Субтитры: Отсутствуют

Дата мировой премьеры: 29 сентября 1972
Видеокодек: MPEG-4 AVC/H.264
Битрейт видео: ~1954 Кбит/сек
Размер кадра: 720x416
Аудиокодек: AC3 2.0
Битрейт аудио: 192 kbps

Из книги «3500 кинорецензий»

Всё начинается с шуточного пари студентов медицинского института. Поль Симэ побеждает в соревновании по соблазнению самой безобразной женщины. А оказавшись в поездке по Северной Африке, он знакомится с хромоногой Кристин, не подозревая, что она — дочь известного хирурга Дюпона, директора престижной клиники, где Поль сможет работать по окончании института. Но в момент обручения с Кристин он впервые встречает Мартину, её очень красивую сестру, и, разумеется, влюбляется, так что готов устранить всех претендентов на руку и сердце этой девушки, оставаясь в то же время мужем Кристин.
Комедийный жанр ленты, довольно редкий для Клода Шаброля, постепенно приобретает чёрно-юмористический оттенок, пока неожиданный финальный поворот сюжета не заставляет вновь убедиться, что этот французский режиссёр — всё-таки поклонник и мастер семейных драм криминального плана. Эта картина поставлена им в промежутке между двумя типично шабролевскими работами «Чудовищная декада» и «Кровавая свадьба». И несмотря на комические, а затем почти гиньольные авантюры любвеобильного героя по прозвищу Доктор /*spam*/ (сыгравший его Жан-Поль Бельмондо снимался ещё в одном из ранних фильмов Клода Шаброля «На двойной поворот ключа»), в конечном результате опять выходит к неутешительному выводу о зреющей внутри одной из ячеек французского общества подсознательной страсти буржуа к разрешению всех проблем, комплексов и обид только при помощи изощрённого насилия. Согласно Шабролю, зло и, в частности, неверность должны быть наказаны, но не таким уж вульгарным способом, практически уравнивающим преступника и жертву.

оценка: 6.5/10

MediaInfo:

Общее
Уникальный идентификатор : 175612184361578139450686477125118268382 (0x841DAD2B92B16EC3ABF34429ADC313DE)
Полное имя : H:\Downloads\Доктор Пополь.mkv
Формат : Matroska
Размер файла : 1,45 Гбайт
Продолжительность : 1 ч. 36 м.
Общий поток : 2148 Кбит/сек
Дата кодирования : UTC 2013-08-03 20:39:43
Программа кодирования : mkvmerge v6.0.0 ('Coming Up For Air') built on Jan 20 2013 09:52:00
Библиотека кодирования : libebml v1.3.0 + libmatroska v1.4.0
Видео
Идентификатор : 1
Формат : AVC
Формат/Информация : Advanced Video Codec
Профиль формата : [url=mailto:[email protected]][email protected][/url]
Параметр CABAC формата : Да
Параметр ReFrames формата : 8 кадров
Идентификатор кодека : V_MPEG4/ISO/AVC
Продолжительность : 1 ч. 36 м.
Битрейт : 1954 Кбит/сек
Ширина : 720 пикс.
Высота : 416 пикс.
Соотношение сторон : 16:9
Частота кадров : 25,000 кадр/сек
Цветовое пространство : YUV
Подвыборка цветности : 4:2:0
Битовая глубина : 8 бит
Тип развёртки : Прогрессивная
Бит/(Пиксели*Кадры) : 0.261
Размер потока : 1,30 Гбайт (89%)
Заголовок : Docteur Popaul
Библиотека кодирования : x264 core 125 r2208 d9d2288
Настройки программы : cabac=1 / ref=8 / deblock=1:-1:-1 / analyse=0x3:0x133 / me=umh / subme=9 / psy=1 / psy_rd=1.00:0.10 / mixed_ref=1 / me_range=32 / chroma_me=1 / trellis=2 / 8x8dct=1 / cqm=0 / deadzone=21,11 / fast_pskip=0 / chroma_qp_offset=-3 / threads=6 / lookahead_threads=1 / sliced_threads=0 / nr=0 / decimate=1 / interlaced=0 / bluray_compat=0 / constrained_intra=0 / bframes=3 / b_pyramid=2 / b_adapt=2 / b_bias=0 / direct=3 / weightb=1 / open_gop=0 / weightp=2 / keyint=250 / keyint_min=25 / scenecut=40 / intra_refresh=0 / rc_lookahead=60 / rc=2pass / mbtree=1 / bitrate=1954 / ratetol=1.0 / qcomp=0.60 / qpmin=10 / qpmax=51 / qpstep=4 / cplxblur=20.0 / qblur=0.5 / ip_ratio=1.40 / aq=1:1.00
Язык : French
Аудио
Идентификатор : 2
Формат : AC-3
Формат/Информация : Audio Coding 3
Расширение режима : CM (complete main)
Идентификатор кодека : A_AC3
Продолжительность : 1 ч. 36 м.
Вид битрейта : Постоянный
Битрейт : 192 Кбит/сек
Каналы : 2 канала
Расположение каналов : Front: L R
Частота : 48,0 КГц
Битовая глубина : 16 бит
Метод сжатия : С потерями
Размер потока : 133 Мбайт (9%)
Заголовок : Многоголосый закадровый
Язык : Russian
Скриншоты:                    Время раздачи: с 13:00 до 01:00 по Москве (выходные круглосуточно), до 10 скачавших
Вне форума [Профиль] [ЛС]
Показать сообщения:    
Ответить на тему

Текущее время: Сегодня 10:58

Часовой пояс: GMT + 3



Вы не можете начинать темы
Вы не можете отвечать на сообщения
Вы не можете редактировать свои сообщения
Вы не можете удалять свои сообщения
Вы не можете голосовать в опросах
Вы не можете прикреплять файлы к сообщениям
Вы не можете скачивать файлы