Сегодня идет свободное скачивание без начисления Download

Голод / Sult / Svält / Hunger (1966) DVDRip

Ответить на тему
 
Автор
Сообщение

UndegraundMen ®

Стаж: 3 года 9 месяцев

Сообщений: 28329

Торрент-статистика

Пост 05-Авг-2013 11:00

[Цитировать]

Голод / Sult / Svält / Hunger (1966) DVDRip- Производство: Дания, Норвегия, Швеция, Sandrews, Studio ABC, Svenska Filminstitutet (SFI)
Год выпуска: 1966
Жанр: Драма
Описание фильма:
Экранизация одноименного романа Кнута Гамсуна. 1890 год. Понтус, голодающий писатель, блуждает по улицам Христиании, в поисках любви и шанса издать его рукописи. Но все, что он встречает — это поражение и страдание, и смысл жизни постепенно уходит. Но все же он сохраняет человеческое достоинство и гордость.
Режиссер: Хеннинг Карлсен
Актеры: Пер Оскарссон, Гуннель Линдблум, Биргитте Федерспиль, Кнуд Рекс, Ханс В. Петерсен, Хенки Кольстад, Рой Бьёрнстад, Сверр Хансен, Пол Скьонберг, Элс Хейберг.
Продолжительность: 01:51:47
Качество видео: DVDRip
Перевод: Двуголосый закадровый
Автор перевода: «СВ-Дубль» ГТРК "Культура"
Язык субтитров: Русские (на непереведённый фрагмент)
Вид субтитров: Отдельным файлом

Дата мировой премьеры: 11.05.1966
Видео: 672x400 (1.68:1), 23.976 fps, XviD build 50 ~1562 kbps avg, 0.24 bit/pixel
Аудио 1: 48 kHz, AC3 Dolby Digital, 1/0 (C) ch, ~96 kbps - русский
Аудио 2: 48 kHz, AC3 Dolby Digital, 2/0 (L,R) ch, ~192 kbps - шведский

MediaInfo

General
Complete name : D:\Public\Sult.1966.DVDRip\Sult.1966.DVDRip.avi
Format : AVI
Format/Info : Audio Video Interleave
File size : 1.46 GiB
Duration : 1h 51mn
Overall bit rate : 1 865 Kbps
Writing application : VirtualDubMod 1.5.10.2 (build 2542/release)
Writing library : VirtualDubMod build 2542/release
Video
ID : 0
Format : MPEG-4 Visual
Format profile : Advanced [email protected]
Format settings, BVOP : 1
Format settings, QPel : No
Format settings, GMC : No warppoints
Format settings, Matrix : Default (MPEG)
Codec ID : XVID
Codec ID/Hint : XviD
Duration : 1h 51mn
Bit rate : 1 563 Kbps
Width : 672 pixels
Height : 400 pixels
Display aspect ratio : 1.680
Frame rate : 23.976 fps
Color space : YUV
Chroma subsampling : 4:2:0
Bit depth : 8 bits
Scan type : Progressive
Compression mode : Lossy
Bits/(Pixel*Frame) : 0.242
Stream size : 1.22 GiB (84%)
Writing library : XviD 1.2.1 (UTC 2008-12-04)
Audio #1
ID : 1
Format : AC-3
Format/Info : Audio Coding 3
Mode extension : CM (complete main)
Codec ID : 2000
Duration : 1h 51mn
Bit rate mode : Constant
Bit rate : 96.0 Kbps
Channel(s) : 1 channel
Channel positions : Front: C
Sampling rate : 48.0 KHz
Bit depth : 16 bits
Compression mode : Lossy
Stream size : 76.8 MiB (5%)
Alignment : Split accross interleaves
Interleave, duration : 42 ms (1.00 video frame)
Interleave, preload duration : 500 ms
Audio #2
ID : 2
Format : AC-3
Format/Info : Audio Coding 3
Mode extension : CM (complete main)
Codec ID : 2000
Duration : 1h 51mn
Bit rate mode : Constant
Bit rate : 192 Kbps
Channel(s) : 2 channels
Channel positions : Front: L R
Sampling rate : 48.0 KHz
Bit depth : 16 bits
Compression mode : Lossy
Stream size : 153 MiB (10%)
Alignment : Split accross interleaves
Interleave, duration : 42 ms (1.00 video frame)
Interleave, preload duration : 500 ms
Скриншоты:          
Вне форума [Профиль] [ЛС]
Похожие темы
Форум Тема Автор Торрент Отв. Посл. сообщение
./templates/default/images/folder_dl.gif T Фильмы 2011-2016 Голодные игры: Сойка-пересмешница. Часть II / The Hunger Games: Mockingjay - Part 2 (Френсис Лоуренс / Francis Lawrence) [2015 г., фантастика, приключения, CAMRip] Dub Clavik
1 | 0

1 | 785

26

2016-01-02 08:06
Dracula Последнее
Показать сообщения:    
Ответить на тему

Текущее время: Сегодня 22:21

Часовой пояс: GMT + 3



Вы не можете начинать темы
Вы не можете отвечать на сообщения
Вы не можете редактировать свои сообщения
Вы не можете удалять свои сообщения
Вы не можете голосовать в опросах
Вы не можете прикреплять файлы к сообщениям
Вы не можете скачивать файлы