Сегодня идет свободное скачивание без начисления Download

Горец / Highlander (Расселл Малкахи / Russell Mulcahy) [1986 г., Боевик, фантастика, BDRip] [AVO] (Л.Володарский)

Ответить на тему
 
Автор
Сообщение

maxkiller ®

Пол:

Стаж: 3 года 10 месяцев

Сообщений: 282

Торрент-статистика

Пост 06-Авг-2013 20:10

[Цитировать]

-Год выпуска: 1986
Страна: США, Великобритания
Жанр: Боевик, фантастика
Продолжительность: 01:56:39
Перевод: Авторский (одноголосный, закадровый) [Л.Володарский]
Русские субтитры: нет
Режиссер: Расселл Малкахи / Russell Mulcahy
В ролях: Кристофер Ламберт, Шон Коннери, Роксанна Харт, Клэнси Браун, Алан Норт, Джон Полито, Шила Гиш, Хью Куэрши, Кристофер Малкольм
Описание: Легендарная фантастическая сага Рассела Малкахи с песнями группы "Queen". Коннор Маклауд (Кристофер Ламберт) - шотландец, который в 1536 году был сражен в битве, но мистическим образом воскрес. Родной клан изгнал его, и учителем Маклауда стал испанский дворянин Рамирес (Шон Коннери). От него Маклауд узнал, что они принадлежат к бессмертной расе воинов, которых можно лишить жизни, лишь обезглавив мечом. И что именно ему, Коннору Маклауду, суждено вступить в идущее сквозь века сражение, от исхода которого зависит судьба всех смертных...
-Качество: BDRip
Формат: AVI
Видео кодек: XviD
Аудио кодек: AC3
Видео: 720x384 (1.88:1), 24.000 fps, XviD MPEG-4 ~1893 kbps avg, 0.29 bit/pixel
Аудио: 48 kHz, AC3 Dolby Digital, 2/0 (L,R) ch, ~192.00 kbps avg

О релизе:

Дорожка с Л. Володарским синхронизирована, ремастирована и наложена ale_x2008 при помощи Adobe Audition, Sony Vegas и VirtualDubMod под данный релиз.
За дорожку с VHSRip благодарим пользователя - Alandr

MI

E:INTERNETHighlander.1986.BDRip.[AVO] [L.Volodarsky].avi
General
Complete name : E:INTERNETHighlander.1986.BDRip.[AVO] [L.Volodarsky].avi
Format : AVI
Format/Info : Audio Video Interleave
File size : 1.71 GiB
Duration : 1h 56mn
Overall bit rate : 2 095 Kbps
Writing application : VirtualDubMod 1.5.10.3 (build 2550/release)
Writing library : VirtualDubMod build 2550/release
Video #0
ID : 0
Format : MPEG-4 Visual
Format profile : Advanced [email protected]
Format settings, BVOP : 2
Format settings, QPel : No
Format settings, GMC : No warppoints
Format settings, Matrix : Default (MPEG)
Muxing mode : Packed bitstream
Codec ID : XVID
Codec ID/Hint : XviD
Duration : 1h 56mn
Bit rate : 1 894 Kbps
Width : 720 pixels
Height : 384 pixels
Display aspect ratio : 1.85:1
Frame rate : 24.000 fps
Color space : YUV
Chroma subsampling : 4:2:0
Bit depth : 8 bits
Scan type : Progressive
Compression mode : Lossy
Bits/(Pixel*Frame) : 0.285
Stream size : 1.54 GiB (90%)
Writing library : XviD 1.2.1 (UTC 2008-12-04)
Audio #1
ID : 1
Format : AC-3
Format/Info : Audio Coding 3
Mode extension : CM (complete main)
Format settings, Endianness : Big
Codec ID : 2000
Duration : 1h 56mn
Bit rate mode : Constant
Bit rate : 192 Kbps
Channel(s) : 2 channels
Channel positions : Front: L R
Sampling rate : 48.0 KHz
Bit depth : 16 bits
Compression mode : Lossy
Stream size : 160 MiB (9%)
Alignment : Split accross interleaves
Interleave, duration : 42 ms (1.00 video frame)
Interleave, preload duration : 500 ms

Скриншоты

     
Вне форума [Профиль] [ЛС]
Показать сообщения:    
Ответить на тему

Текущее время: Сегодня 22:51

Часовой пояс: GMT + 3



Вы не можете начинать темы
Вы не можете отвечать на сообщения
Вы не можете редактировать свои сообщения
Вы не можете удалять свои сообщения
Вы не можете голосовать в опросах
Вы не можете прикреплять файлы к сообщениям
Вы не можете скачивать файлы