Сегодня идет свободное скачивание без начисления Download

Американский оборотень в Париже / An American Werewolf in Paris (1997) DVDRip [H.264]

Ответить на тему
 
Автор
Сообщение

Omen ®

Стаж: 4 года 1 месяц

Сообщений: 194394

Торрент-статистика

Пост 06-Авг-2013 20:39

[Цитировать]

Американский оборотень в Париже
An American Werewolf in Paris
-«Things are about to get a little hairy.»- Год выпуска: 1997
Производство: Великобритания, Нидерланды, Люксембург, США, Франция
Жанр: ужасы, фэнтези, триллер, мелодрама, комедия-Описание фильма: Энди, Крис и Брэд путешествуют по Европе в поисках приключений. Они находят их в Париже, в мрачных катакомбах которого владычествует могущественный клан оборотней. Однажды ночью Энди предотвращает самоубийство молодой француженки Серафин. Потрясенный ее красотой, Энди с друзьями отправляется на поиски прекрасной мадемуазель.
Оказывается, что Серафин - оборотень, и ее держит в плену глава клана Клод. Энди должен найти вакцину, которая поможет Серафин остаться человеком и расправиться с кланом, существование которого угрожает всему человечеству. К тому же Энди сам укушен оборотнем и уже чувствует, как в нем начинает шевелиться зверь...-Режиссер: Энтони Уоллер
Актеры: Том Эверетт Скотт (Andy McDermott), Жюли Дельпи (Serafine Pigot), Винс Вьелуф (Brad), Фил Букман (Chris), Джули Боуэн (Amy Finch), Пьер Коссо (Claude), Тьерри Лермитт (Dr. Thierry Pigot), Том Новамбр (Inspector LeDuc), Мария Машадо (Chief Bonnet), Бен Салем Буабдаллах (Detective Ben Bou), Серж Бассо (Officer with Flashlight), Чарльз Макиньон (Bouncer)-Продолжительность: 01:38:19
Качество видео: DVDRip
Перевод: Двуголосый закадровый, авторский одноголосый закадровый
Вид субтитров: Вшитые отключаемые
Язык субтитров: Русский- -Видеокодек: MPEG-4 AVC/H.264
Битрейт видео: ~1 300 Кбит/с
Размер кадра: [email protected]
Аудио 1: Русский: AC3, 6 ch, 448 Кбит/с - Двуголосый (Амальгама)
Аудио 2: Русский: AC3, 6 ch, 384 Кбит/с - Андрей Гаврилов
-

MediaInfo:

General
Unique ID : 187123508014865891969237544251696084815 (0x8CC6AD3EBB5826F48024C886262BF74F)
Complete name : D:\Торрент\An.American.Werewolf.in.Paris.(H.264).DVDRip.mkv
Format : Matroska
Format version : Version 4 / Version 2
File size : 1.47 GiB
Duration : 1h 38mn
Overall bit rate : 2 134 Kbps
Encoded date : UTC 2013-05-19 11:08:03
Writing application : mkvmerge v6.2.0 ('Promised Land') built on Apr 28 2013 12:22:01
Writing library : libebml v1.3.0 + libmatroska v1.4.0
Video
ID : 1
Format : AVC
Format/Info : Advanced Video Codec
Format profile : [url=mailto:[email protected]][email protected][/url]
Format settings, CABAC : Yes
Format settings, ReFrames : 9 frames
Codec ID : V_MPEG4/ISO/AVC
Duration : 1h 38mn
Bit rate : 1 300 Kbps
Width : 716 pixels
Height : 352 pixels
Display aspect ratio : 16:9
Original display aspect ratio : 16:9
Frame rate mode : Constant
Frame rate : 23.976 fps
Color space : YUV
Chroma subsampling : 4:2:0
Bit depth : 8 bits
Scan type : Progressive
Bits/(Pixel*Frame) : 0.215
Stream size : 886 MiB (59%)
Writing library : x264 core 132 r2310 76a5c3a
Encoding settings : cabac=1 / ref=9 / deblock=1:-1:-1 / analyse=0x3:0x133 / me=umh / subme=9 / psy=1 / psy_rd=1.00:0.10 / mixed_ref=1 / me_range=32 / chroma_me=1 / trellis=2 / 8x8dct=1 / cqm=0 / deadzone=21,11 / fast_pskip=0 / chroma_qp_offset=-3 / threads=6 / lookahead_threads=1 / sliced_threads=0 / nr=0 / decimate=1 / interlaced=0 / bluray_compat=0 / constrained_intra=0 / bframes=3 / b_pyramid=2 / b_adapt=2 / b_bias=0 / direct=3 / weightb=1 / open_gop=0 / weightp=2 / keyint=250 / keyint_min=23 / scenecut=40 / intra_refresh=0 / rc_lookahead=50 / rc=2pass / mbtree=1 / bitrate=1300 / ratetol=1.0 / qcomp=0.60 / qpmin=0 / qpmax=69 / qpstep=4 / cplxblur=20.0 / qblur=0.5 / ip_ratio=1.40 / aq=1:1.00
Language : English
Default : Yes
Forced : No
Audio #1
ID : 2
Format : AC-3
Format/Info : Audio Coding 3
Mode extension : CM (complete main)
Format settings, Endianness : Big
Codec ID : A_AC3
Duration : 1h 38mn
Bit rate mode : Constant
Bit rate : 448 Kbps
Channel(s) : 6 channels
Channel positions : Front: L C R, Side: L R, LFE
Sampling rate : 48.0 KHz
Bit depth : 16 bits
Compression mode : Lossy
Delay relative to video : 19ms
Stream size : 315 MiB (21%)
Title : DVO
Language : Russian
Default : Yes
Forced : No
Audio #2
ID : 3
Format : AC-3
Format/Info : Audio Coding 3
Mode extension : CM (complete main)
Format settings, Endianness : Big
Codec ID : A_AC3
Duration : 1h 38mn
Bit rate mode : Constant
Bit rate : 384 Kbps
Channel(s) : 6 channels
Channel positions : Front: L C R, Side: L R, LFE
Sampling rate : 48.0 KHz
Bit depth : 16 bits
Compression mode : Lossy
Stream size : 270 MiB (18%)
Title : Андрей Гаврилов
Language : Russian
Default : No
Forced : No
Text
ID : 4
Format : UTF-8
Codec ID : S_TEXT/UTF8
Codec ID/Info : UTF-8 Plain Text
Language : Russian
Default : Yes
Forced : No
Menu
00:05:08.167 : :Chapter 01
00:12:15.135 : :Chapter 02
00:16:54.902 : :Chapter 03
00:22:24.236 : :Chapter 04
00:28:58.236 : :Chapter 05
00:38:20.703 : :Chapter 06
00:42:53.270 : :Chapter 07
00:47:57.770 : :Chapter 08
00:54:58.137 : :Chapter 09
01:00:57.471 : :Chapter 10
01:07:04.638 : :Chapter 11
01:16:56.539 : :Chapter 12
01:20:53.806 : :Chapter 13
01:27:34.939 : :Chapter 14
-Скриншоты:
         -
Вне форума [Профиль] [ЛС]
Похожие темы
Форум Тема Автор Торрент Отв. Посл. сообщение
./templates/default/images/folder_dl.gif ЖЗЛ. Биографии. Мемуары. Историография. Дмитрий Таболкин | 100 знаменитых американцев [2008] [FB2] sashau
1 | 0

0 | 756

2

2013-04-06 17:38
sashau Последнее
./templates/default/images/folder_dl.gif Видеотренинги Илья Нодия | Американская рекламная фотография (2015) CamRip [H.264/720p] Omen
1 | 0

0 | 56

11

2015-10-03 20:37
Omen Последнее
Показать сообщения:    
Ответить на тему

Текущее время: Сегодня 16:39

Часовой пояс: GMT + 3



Вы не можете начинать темы
Вы не можете отвечать на сообщения
Вы не можете редактировать свои сообщения
Вы не можете удалять свои сообщения
Вы не можете голосовать в опросах
Вы не можете прикреплять файлы к сообщениям
Вы не можете скачивать файлы