Сегодня идет свободное скачивание без начисления Download

Черная вдова / Black Widow (Боб Рейфелсон) (Детектив, Триллер, Криминал 1987) HDTVRip

Ответить на тему
 
Автор
Сообщение

Omen ®

Стаж: 4 года 1 месяц

Сообщений: 194394

Торрент-статистика

Пост 06-Авг-2013 20:53

[Цитировать]

Черная вдова / Black Widow
«She Mates and She kills. No Man Can Resist Her. Only One Woman Can Stop Her.»
- Год выпуска: 1987
Жанр: Детектив, Триллер, Криминал
Описание фильма:
Красивая молодая женщина Кэтрин (Тереза Расселл) нашла способ отлично устроиться в жизни. Она выходит замуж только за миллионеров и со временем добивается, чтобы все их состояние было переведено на ее имя. Затем с помощью яда, не оставляющего следов, убивает своих мужей, становясь единственной наследницей. Кэтрин умна, хитра, изобретательна и очень осторожна. Она никогда не повторяется. Новую жертву выбирает долго и тщательно. Изменяя внешность до неузнаваемости, она каждый раз расставляет ловушку в новом месте, переезжая из Далласа в Сиэтл, затем на Гавайи. Никому и в голову не приходит хоть в чем-то заподозрить Кэтрин. Никому, кроме проницательного агента ФБР Александры Барнс (Дебра Уингер)…

Режиссер: Боб Рейфелсон
Актеры: Дебра Уингер, Тереза Расселл, Деннис Хоппер, Сами Фрей, Никол Уильямсон, Терри О’Куинн, Джеймс Хонг, Дайан Лэдд, Д.В. Моффетт, Лоис Смит, Лео Росси, Дэнни Камекона, Рутанья Алда, Мэри Воронов, Уэйн Хэффли, Рэли Бонд, Донеган Смит, Кристиан Клименсон, Арсенио Тринидад, Кейт Холл, Ричард Арнольд, Крис С. Дьюси, Дэвид Мэмет, Джин Каллахан, Томас Хилл, Эд Пэнг, Аллен Ноз, Денис Хьюит, Роберт Дж. Питерс, Аль Серулло, Мик Малдун, Энн Локхарт
Продолжительность: 01:35:51
Качество видео: HDTVRip c |HDTV 1080i|
Перевод: Профессиональный многоголосый |1-й канал|

____________________________
Видеокодек: Xvid
Битрейт видео: ~1976 kbps
Размер кадра: 720x400
Аудио: AC3, 2 ch, 192.00 kbps

MI

Общее
Полное имя : Black.Widow.1987.HDTVRip.avi
Формат : AVI
Формат/Информация : Audio Video Interleave
Размер файла : 1,46 Гбайт
Продолжительность : 1 ч. 35 м.
Общий поток : 2178 Кбит/сек
Программа кодирования : VirtualDubMod 1.5.10.3 | www.virtualdub-fr.org || (build 2550/release)
Библиотека кодирования : VirtualDubMod build 2550/release
Видео
Идентификатор : 0
Формат : MPEG-4 Visual
Профиль формата : Advanced [email protected]
Параметр BVOP формата : 1
Параметр QPel формата : Нет
Параметр GMC формата : Без точки перехода
Параметр матрицы формата : Выборочная
Идентификатор кодека : XVID
Идентификатор кодека/Подсказка : XviD
Продолжительность : 1 ч. 35 м.
Битрейт : 1976 Кбит/сек
Ширина : 720 пикс.
Высота : 400 пикс.
Соотношение сторон : 16:9
Частота кадров : 25,000 кадр/сек
Цветовое пространство : YUV
Подвыборка цветности : 4:2:0
Битовая глубина : 8 бит
Тип развёртки : Прогрессивная
Метод сжатия : С потерями
Бит/(Пиксели*Кадры) : 0.274
Размер потока : 1,32 Гбайт (91%)
Библиотека кодирования : XviD 73
Аудио
Идентификатор : 1
Формат : AC-3
Формат/Информация : Audio Coding 3
Расширение режима : CM (complete main)
Идентификатор кодека : 2000
Продолжительность : 1 ч. 35 м.
Вид битрейта : Постоянный
Битрейт : 192 Кбит/сек
Канал(ы) : 2 канала(ов)
Расположение каналов : Front: L R
Частота : 48,0 КГц
Битовая глубина : 16 бит
Метод сжатия : С потерями
Размер потока : 132 Мбайт (9%)
Выравнивание : Разделение по промежуткам
Продолжительность промежутка : 40 мс. (1,00 видеокадр)
Время предзагрузки промежутка : 500 ms
Скриншоты:        
       
Вне форума [Профиль] [ЛС]
Похожие темы
Форум Тема Автор Торрент Отв. Посл. сообщение
./templates/default/images/folder_dl.gif Психология, Тренинг, Саморазвитие Ричард Дэнсон | Черная риторика. Запрещенные приёмы ведения дискуссий (2016) [FB2] [email protected]
1 | 0

0 | 124

4

2016-11-25 18:50
[email protected] Последнее
Показать сообщения:    
Ответить на тему

Текущее время: Сегодня 17:32

Часовой пояс: GMT + 3



Вы не можете начинать темы
Вы не можете отвечать на сообщения
Вы не можете редактировать свои сообщения
Вы не можете удалять свои сообщения
Вы не можете голосовать в опросах
Вы не можете прикреплять файлы к сообщениям
Вы не можете скачивать файлы