Сегодня идет свободное скачивание без начисления Download

1492: Завоевание рая / 1492: Conquest of Paradise (Ридли Скотт) (приключения, биография, история, драма 1992) BDRip

Ответить на тему
 
Автор
Сообщение

Omen ®

Стаж: 4 года 1 месяц

Сообщений: 194394

Торрент-статистика

Пост 06-Авг-2013 20:59

[Цитировать]

1492: Завоевание рая
1492: Conquest of Paradise
-«Великая мечта, ставшая реальностью всемирной истории»- Год выпуска: 1992
Жанр: приключения, биография, история, драма
Описание фильма:
Великая мечта, ставшая реальностью всемирной истории. Генуэзский мореплаватель Христофор Колумб всю жизнь мечтал открыть новые пути в Индию. Много лет все только смеялись над его «безумными» проектами проложить морской маршрут на Восток через Запад. И все же Колумб смог убедить испанскую королеву Изабеллу профинансировать его экспедицию в далекие страны, богатые золотом и пряностями. Снарядив три небольшие каравеллы, Колумб отправился навстречу неизведанному… В этих великих путешествиях проявилось все величие и страстность эпохи, когда творилась История. Отвага и ослепление, триумф и отчаяние, высокомерие Старого и невинность Нового света, «завоевание рая», начало новой эры…
Режиссер: Ридли Скотт
Актеры: Жерар Депардье, Арманд Ассанте, Сигурни Уивер, Лорен Дин, Анхела Молина, Фернандо Рей, Майкл Уинкотт, Чеки Карио, Кевин Данн, Фрэнк Ланджелла
Продолжительность: 02:29:25
Качество видео: BDRip
Перевод: Профессиональный (многоголосый, закадровый) - RUSCICO + Профессиональный (двухголосый закадровый) - (Украинский - 2+2)

Дата мировой премьеры: 8 октября 1992
Видеокодек: Xvid
Битрейт видео: ~1696 kbps
Размер кадра: 720x304
Audio #1: 48 kHz, AC3 Dolby Digital, 2/0 (L,R) ch, ~192 kbps - Профессиональный (многоголосый, закадровый) - RUSCICO
Audio #2: 48 kHz, AC3 Dolby Digital, 2/0 (L,R) ch, ~192 kbps - Профессиональный (двухголосый закадровый) - (Украинский - 2+2)

&

MI

Общее
Полное имя : E:\Фильмы М\1492.Conquest.of.Paradise.1992.BDRip.avi
Формат : AVI
Формат/Информация : Audio Video Interleave
Профиль формата : OpenDML
Размер файла : 2,19 Гбайт
Продолжительность : 2 ч. 29 м.
Общий поток : 2099 Кбит/сек
Название фильма : 1492.Conquest.of.Paradise.1992.BDRip
Режиссёр : rip by maygli
Программа кодирования : VirtualDubModRus 1.5.10.2 (build 2542/release)
Правообладатель : ... (RG Rulya74)
Видео
Идентификатор : 0
Формат : MPEG-4 Visual
Профиль формата : Advanced [email protected]
Параметр BVOP формата : 1
Параметр QPel формата : Нет
Параметр GMC формата : Без точки перехода
Параметр матрицы формата : Выборочная
Режим смешивания : Сжатый битовый поток
Идентификатор кодека : XVID
Идентификатор кодека/Подсказка : XviD
Продолжительность : 2 ч. 29 м.
Битрейт : 1696 Кбит/сек
Ширина : 720 пикселей
Высота : 304 пикселя
Соотношение сторон : 2,35:1
Частота кадров : 25,000 кадров/сек
Цветовое пространство : YUV
Субдискретизация насыщенности : 4:2:0
Битовая глубина : 8 бит
Тип развёртки : Прогрессивная
Метод сжатия : С потерями
Бит/(Пиксели*Кадры) : 0.310
Размер потока : 1,77 Гбайт (81%)
Библиотека кодирования : XviD 65
Аудио #1
Идентификатор : 1
Формат : AC-3
Формат/Информация : Audio Coding 3
Расширение режима : CM (complete main)
Параметр Endianness формата : Big
Идентификатор кодека : 2000
Продолжительность : 2 ч. 29 м.
Вид битрейта : Постоянный
Битрейт : 192 Кбит/сек
Каналы : 2 канала
Расположение каналов : Front: L R
Частота : 48,0 КГц
Битовая глубина : 16 бит
Метод сжатия : С потерями
Размер потока : 205 Мбайт (9%)
Выравнивание : Разделение по промежуткам
Продолжительность промежутка : 40 мс. (1,00 видеокадр)
Время предзагрузки промежутка : 500 мс.
Заголовок : Профессиональный (многоголосый, закадровый) - RUSCICO
Аудио #2
Идентификатор : 2
Формат : AC-3
Формат/Информация : Audio Coding 3
Расширение режима : CM (complete main)
Параметр Endianness формата : Big
Идентификатор кодека : 2000
Продолжительность : 2 ч. 29 м.
Вид битрейта : Постоянный
Битрейт : 192 Кбит/сек
Каналы : 2 канала
Расположение каналов : Front: L R
Частота : 48,0 КГц
Битовая глубина : 16 бит
Метод сжатия : С потерями
Размер потока : 205 Мбайт (9%)
Выравнивание : Разделение по промежуткам
Продолжительность промежутка : 40 мс. (1,00 видеокадр)
Время предзагрузки промежутка : 500 мс.
Заголовок : Профессиональный (двухголосый закадровый) - (Украинский - 2+2)
Скриншоты:
           
Вне форума [Профиль] [ЛС]
Показать сообщения:    
Ответить на тему

Текущее время: Сегодня 20:56

Часовой пояс: GMT + 3



Вы не можете начинать темы
Вы не можете отвечать на сообщения
Вы не можете редактировать свои сообщения
Вы не можете удалять свои сообщения
Вы не можете голосовать в опросах
Вы не можете прикреплять файлы к сообщениям
Вы не можете скачивать файлы