Сегодня идет свободное скачивание без начисления Download

Трудная мишень / Hard Target (Джон Ву) (Боевик, Триллер, Криминал 1993) HDRip

Ответить на тему
 
Автор
Сообщение

Omen ®

Стаж: 4 года 1 месяц

Сообщений: 194382

Торрент-статистика

Пост 06-Авг-2013 21:16

[Цитировать]

Трудная мишень / Hard Target
«Catch him if you can.»
- Год выпуска: 1993
Жанр: Боевик, Триллер, Криминал
Описание фильма:
Мужественный герой неутомимого Ван Дамма пытается помочь молодой красавице найти ее отца, ветерана вьетнамской войны, пропавшего без вести не на полях сражений, а в родной стране, а в результате — вынужден не на жизнь, а на смерть схватиться с бандой патологических злодеев, которые используют несчастных бездомных в качестве жертв своей жестокой и опасной игры.
Режиссер: Джон Ву
Актеры: Жан-Клод Ван Дамм (Chance Boudreaux), Янси Батлер (Natasha Binder), Лэнс Хенриксен (Emil Fouchon), Арнольд Вослу (Pik van Cleef), Уилфорд Бримли (Uncle Douvee), Уилли С. Карпентер (Elijah Roper), Кейси Леммонс (Det. Marie Mitchell), Чак Пфаррер (Douglas Binder), Роберт Аписа (Mr. Lopacki), Дуглас Форсайт Рай (Frick)
Продолжительность: 01:39:33
Качество видео: HDRip c |BDRip 1080p|
Перевод: Профессиональный (многоголосый закадровый), Авторский (одноголосый) А.Гаврилов
Доп. информация: В переводе А.Гаврилова ( концовка ) отсутствует несколько фраз вследствии разного хронометража издания , перевод взят с HDTV релиза

___________________________
Видеокодек: Xvid
Битрейт видео: ~2222 kbps
Размер кадра: 704x384
Аудио 1: AC3, 6 ch, 448 Kbps..............|MVO|
Аудио 2: AC3, 6 ch, 448 Kbps..............|AVO - А.Гаврилов|

MI

Общее
Полное имя : Trudnaya.mishenj.1993.HDRip.avi
Формат : AVI
Формат/Информация : Audio Video Interleave
Профиль формата : OpenDML
Размер файла : 2,18 Гбайт
Продолжительность : 1 ч. 39 м.
Общий поток : 3135 Кбит/сек
Программа кодирования : VirtualDubMod 1.5.10.2 (build 2542/release)
Библиотека кодирования : VirtualDubMod build 2542/release
Видео
Идентификатор : 0
Формат : MPEG-4 Visual
Профиль формата : Advanced [email protected]
Параметр BVOP формата : 1
Параметр QPel формата : Нет
Параметр GMC формата : Без точки перехода
Параметр матрицы формата : Выборочная
Идентификатор кодека : XVID
Идентификатор кодека/Подсказка : XviD
Продолжительность : 1 ч. 39 м.
Битрейт : 2222 Кбит/сек
Ширина : 704 пикс.
Высота : 384 пикс.
Соотношение сторон : 16:9
Частота кадров : 23,976 кадр/сек
Цветовое пространство : YUV
Подвыборка цветности : 4:2:0
Битовая глубина : 8 бит
Тип развёртки : Прогрессивная
Метод сжатия : С потерями
Бит/(Пиксели*Кадры) : 0.343
Размер потока : 1,55 Гбайт (71%)
Библиотека кодирования : XviD 73
Аудио #1
Идентификатор : 1
Формат : AC-3
Формат/Информация : Audio Coding 3
Расширение режима : CM (complete main)
Идентификатор кодека : 2000
Продолжительность : 1 ч. 39 м.
Вид битрейта : Постоянный
Битрейт : 448 Кбит/сек
Канал(ы) : 6 канала(ов)
Расположение каналов : Front: L C R, Side: L R, LFE
Частота : 48,0 КГц
Битовая глубина : 16 бит
Метод сжатия : С потерями
Размер потока : 318 Мбайт (14%)
Выравнивание : Разделение по промежуткам
Продолжительность промежутка : 42 мс. (1,00 видеокадр)
Время предзагрузки промежутка : 500 ms
Аудио #2
Идентификатор : 2
Формат : AC-3
Формат/Информация : Audio Coding 3
Расширение режима : CM (complete main)
Идентификатор кодека : 2000
Продолжительность : 1 ч. 39 м.
Вид битрейта : Постоянный
Битрейт : 448 Кбит/сек
Канал(ы) : 6 канала(ов)
Расположение каналов : Front: L C R, Side: L R, LFE
Частота : 48,0 КГц
Битовая глубина : 16 бит
Метод сжатия : С потерями
Размер потока : 319 Мбайт (14%)
Выравнивание : Разделение по промежуткам
Продолжительность промежутка : 42 мс. (1,00 видеокадр)
Время предзагрузки промежутка : 500 ms
Скриншоты:      
       
Вне форума [Профиль] [ЛС]
Похожие темы
Форум Тема Автор Торрент Отв. Посл. сообщение
./templates/default/images/folder_dl.gif Для детей, родителей и учителей Людмила Петрановская | Если с ребенком трудно (2013) [PDF] sashau
1 | 0

0 | 1250

12

2013-10-31 16:38
sashau Последнее
Показать сообщения:    
Ответить на тему

Текущее время: Сегодня 00:21

Часовой пояс: GMT + 3



Вы не можете начинать темы
Вы не можете отвечать на сообщения
Вы не можете редактировать свои сообщения
Вы не можете удалять свои сообщения
Вы не можете голосовать в опросах
Вы не можете прикреплять файлы к сообщениям
Вы не можете скачивать файлы