Сегодня идет свободное скачивание без начисления Download

Продюсеры / Весна для Гитлера / The Producers (Мэл Брукс) (Комедия 1968) BDRip [H.264]

Ответить на тему
 
Автор
Сообщение

Omen ®

Стаж: 4 года 1 месяц

Сообщений: 194390

Торрент-статистика

Пост 06-Авг-2013 21:18

[Цитировать]

Продюсеры / Весна для Гитлера
The Producers

«Hollywood Never Faced a Zanier Zero Hour!»
- Год выпуска: 1968
Жанр: Комедия
Описание фильма:
Познакомились как-то неудачливый театральный продюсер Макс Бялысток и невезучий, робкий бухгалтер Лео Блюм. И совершенно случайно Лео подбрасывает Максу сумасшедшую идею о том, как провернуть гениальную аферу на бродвейских подмостках…
Режиссер: Мэл Брукс
Актеры: Зеро Мостел, Джин Уайлдер, Дик Шоун, Кеннет Марс, Ли Мередит, Кристофер Хьюитт, Андреас Вуцинас, Эстель Уинвуд, Рене Тейлор, Дэвид Пэч
Продолжительность: 01:29:22
Качество видео: BDRip
Перевод: Многоголосый закадровый (3 варианта)

Видеокодек: MPEG-4 AVC/H.264
Битрейт видео: ~1850 Kbps
Размер кадра: 960x512
Аудио 1: Dolby AC3 48000Hz stereo 160 Kbps 2ch Front: L R (MVO SomeWax)
Аудио 2: Dolby AC3 48000Hz stereo 160 Kbps 2ch Front: L R (MVO 5 канал)
Аудио 3: Dolby AC3 48000Hz stereo 160 Kbps 2ch Front: L R (N/A)

MediaInfo

General
Unique ID : 222482349963716846046611361444787012537 (0xA7608ABFCF28600DA01A54F4BE9E43B9)
Complete name : Продюсеры.mkv
Format : Matroska
Format version : Version 4 / Version 2
File size : 1.45 GiB
Duration : 1h 29mn
Overall bit rate : 2 330 Kbps
Movie name : Продюсеры / The Producers (rip by smithland)
Encoded date : UTC 2010-02-22 21:41:31
Writing application : mkvmerge v5.9.0 ('On The Loose')
Writing library : libebml v1.3.0 + libmatroska v1.4.0
Attachment : Yes
Video
ID : 1
Format : AVC
Format/Info : Advanced Video Codec
Format profile : [url=mailto:[email protected]][email protected][/url]
Format settings, CABAC : Yes
Format settings, ReFrames : 10 frames
Codec ID : V_MPEG4/ISO/AVC
Duration : 1h 29mn
Bit rate : 1 850 Kbps
Width : 960 pixels
Height : 512 pixels
Display aspect ratio : 1.85:1
Frame rate mode : Constant
Frame rate : 23.976 fps
Color space : YUV
Chroma subsampling : 4:2:0
Bit depth : 8 bits
Scan type : Progressive
Bits/(Pixel*Frame) : 0.157
Stream size : 1.13 GiB (77%)
Writing library : x264 core 130 r2273 b3065e6
Encoding settings : cabac=1 / ref=10 / deblock=1:-2:0 / analyse=0x3:0x133 / me=umh / subme=9 / psy=1 / psy_rd=1.10:0.50 / mixed_ref=1 / me_range=20 / chroma_me=1 / trellis=1 / 8x8dct=1 / cqm=0 / deadzone=21,11 / fast_pskip=1 / chroma_qp_offset=-4 / threads=6 / lookahead_threads=1 / sliced_threads=0 / nr=0 / decimate=0 / interlaced=0 / bluray_compat=0 / constrained_intra=0 / bframes=5 / b_pyramid=2 / b_adapt=1 / b_bias=0 / direct=1 / weightb=1 / open_gop=0 / weightp=2 / keyint=240 / keyint_min=24 / scenecut=40 / intra_refresh=0 / rc_lookahead=40 / rc=abr / mbtree=1 / bitrate=1850 / ratetol=1.0 / qcomp=0.60 / qpmin=0 / qpmax=69 / qpstep=4 / ip_ratio=1.40 / aq=1:1.00
Language : Russian
Default : Yes
Forced : Yes
Color primaries : BT.709
Transfer characteristics : BT.709
Matrix coefficients : BT.709
Audio #1
ID : 2
Format : AC-3
Format/Info : Audio Coding 3
Mode extension : CM (complete main)
Format settings, Endianness : Big
Codec ID : A_AC3
Duration : 1h 29mn
Bit rate mode : Constant
Bit rate : 160 Kbps
Channel(s) : 2 channels
Channel positions : Front: L R
Sampling rate : 48.0 KHz
Bit depth : 16 bits
Compression mode : Lossy
Stream size : 102 MiB (7%)
Title : MVO SomeWax
Language : Russian
Default : Yes
Forced : Yes
Audio #2
ID : 3
Format : AC-3
Format/Info : Audio Coding 3
Mode extension : CM (complete main)
Format settings, Endianness : Big
Codec ID : A_AC3
Duration : 1h 29mn
Bit rate mode : Constant
Bit rate : 160 Kbps
Channel(s) : 2 channels
Channel positions : Front: L R
Sampling rate : 48.0 KHz
Bit depth : 16 bits
Compression mode : Lossy
Stream size : 102 MiB (7%)
Title : MVO 5 канал
Language : Russian
Default : No
Forced : No
Audio #3
ID : 4
Format : AC-3
Format/Info : Audio Coding 3
Mode extension : CM (complete main)
Format settings, Endianness : Big
Codec ID : A_AC3
Duration : 1h 29mn
Bit rate mode : Constant
Bit rate : 160 Kbps
Channel(s) : 2 channels
Channel positions : Front: L R
Sampling rate : 48.0 KHz
Bit depth : 16 bits
Compression mode : Lossy
Stream size : 102 MiB (7%)
Title : MVO
Language : Russian
Default : No
Forced : No
Menu
00:00:00.000 : en:Chapter 1
00:10:17.199 : en:Chapter 2
00:21:52.561 : en:Chapter 3
00:34:46.751 : en:Chapter 5
00:43:15.009 : en:Chapter 6
00:49:41.520 : en:Chapter 7
00:57:18.476 : en:Chapter 8
01:13:41.417 : en:Chapter 9
01:23:20.328 : en:Chapter 10
Скриншоты:
       
       
Вне форума [Профиль] [ЛС]
Показать сообщения:    
Ответить на тему

Текущее время: Сегодня 13:29

Часовой пояс: GMT + 3



Вы не можете начинать темы
Вы не можете отвечать на сообщения
Вы не можете редактировать свои сообщения
Вы не можете удалять свои сообщения
Вы не можете голосовать в опросах
Вы не можете прикреплять файлы к сообщениям
Вы не можете скачивать файлы