Сегодня идет свободное скачивание без начисления Download

Совершенный мир / A Perfect World (Клинт Иствуд) (Триллер, Драма, Криминал 1993) HDRip [H.264]

Ответить на тему
 
Автор
Сообщение

Omen ®

Стаж: 4 года 1 месяц

Сообщений: 194390

Торрент-статистика

Пост 08-Авг-2013 21:20

[Цитировать]

Совершенный мир / A Perfect World - Год выпуска: 1993
Жанр: Триллер, Драма, Криминал
Производство: США/Malpaso Productions, Warner Bros. Pictures Co.
Описание фильма:
Батч Хейнс — закаленный жизнью преступник, бежавший вместе с юным заложником, видящим в Батче отца, которого у него никогда не было. Ред Гарнетт — хитрый техасский рейнджер, предводитель шерифов. Ему знакомы каждая тропинка и укрытие. И более того — ему знаком и неуловимый Хейнс, ведь их пути уже пересекались однажды.
Режиссер: Клинт Иствуд
Сценарий: Джон Ли Хэнкок
Продюсер: Клинт Иствуд, Марк Джонсон, Дэвид Валдес
Актеры: Кевин Костнер, Клинт Иствуд, Лора Дерн, Т. Дж. Лоузер, Кит Шарабайка, Лео Бёрместер, Пол Хьюит, Брэдли Уитфорд, Рэй МакКиннон, Дженнифер Гриффин
Продолжительность: 02:18:18
Качество видео: HDRip
Перевод: Дублированный, авторский одноголосый

Дата мировой премьеры: 24 ноября 1993
Видеокодек: MPEG-4 AVC/H.264
Битрейт видео: ~1600 Кбит/сек
Размер кадра: 1024x 424
Аудио 1: Русский, АС3 2.0, 192 kbps, 48 kHz [Дублированный, Варус-Видео( VHS)]
Аудио 2: Русский, АС3 2.0, 128 kbps, 48 kHz [Авторский одноголосый, А.Гаврилов]

Знаете ли вы, что...

Песня «Море несчастья», звучащая в фильме, была также использована в другом фильме Иствуда — «Перевал разбитых сердец».
Фото на плакате к фильму не является кадром из самого фильма. В фильме Филип всегда одет необычно — вначале в нижнем белье, затем в костюме Каспера.
В биллинге к фильму Кевин Костнер указан выше Клинта Иствуда. Таким образом, это первый фильм со времен «Раскрась свой фургон» (1969), в котором Иствуд находится не на первой строке биллинга.
На роль Хейнса Иствуд первоначально планировал взять Дензела Вашингтона.

Реценция с кинопоиска, Ковбой Мальборо:

В поисках совершенного мира…
В этой картине под названием «Совершенный мир» рассказывается о беглом заключенном Бутче Хейнсе который после побега прихватил в заложники мальчугана восьми лет. За ними по пятам идет техасский рейнджер Ред Гарнетт в надежде поймать заключенного.
После прочтения краткого описания кажется что мы увидим фильм о противостоянии двух людей — Реда и Бутча. Но мы видим очень сильную драму о людях и жизни вообще. Кто бы мог подумать что заложник, то есть мальчишка проникнется симпатией к своему похитителю, а этот вроде бы плохой похититель привязывается к этому парнишке. Да Бутч плохой, он убил несколько человек, но по ходу фильма мы видим что на такие поступки его вынудил мир, несовершенный мир.
Скрываясь от полиции и пересекая весь Техас, Бутч показывает Филлпу (так зовут мальчика) как нужно радоваться жизни, помогает ощутить вкус свободы. Филлип вырос в семье которая не отмечает ни дни рождения, ни Рождество, ему запрещают есть сладкую вату и кататься на горках. Нет, Бутч ни в коем случае не заставляет его это делать, мальчишка сам принимает решения, и делает то что ему захочется. Он много раз мог от него убежать, но не стал этого делать, он к нему привязался, как это ни странно — они стали друзьями.
Вообще фильм потряс меня до глубины души, так показать эту душещипательную историю. Главная заслуга в этом несомненно как и режиссера Клинт Иствуда, так и исполнителя главной роли Кевина Костнера.
Исполнитель главной роли Кевин Костнер прекрасно справился со своей ролью. Его герою иногда переживаешь, понимая что таким его сделала жизнь. Но порой он и вызывает неприязнь, не по боюсь этого слова. В сцене когда он хочет убить доброго негра который приютил их на ночь, но который впоследствии разозлил Бутча тем что он ударил своего внука. Это самый напряженный момент картины, при просмотре понимаешь что так и не понял до конца Бутча, и не знаешь что от него ожидать. Убьет ли он этого человека, либо же нет… Так же великолепно со своей ролью справился Т. Дж. Лоузер, играющий мальчика Филлипа, он сумел показать все чувства которые испытывает в данный момент мальчик. А финальная сцена просто вышибает слезу, удержаться просто невозможно.
Я вряд ли бы их убил. Я убил только двоих за всю свою жизнь — один обидел маму, другой тебя…
Это фильм одновременно и грустный и веселый. Последние кадры фильма говорят нам о том, что в жизни есть светлые моменты.
«Я не хороший человек, но и не совсем плохой!»

MediaInfo:

Общее
Уникальный идентификатор : 217112356063941473292061221166498973810 (0xA356519BD40A29148C8F4EFDC2980872)
Полное имя : H:\Downloads\Совершенный мир.mkv
Формат : Matroska
Размер файла : 1,86 Гбайт
Продолжительность : 2 ч. 18 м.
Общий поток : 1921 Кбит/сек
Дата кодирования : UTC 2013-08-07 12:07:52
Программа кодирования : mkvmerge v6.0.0 ('Coming Up For Air') built on Jan 20 2013 09:52:00
Библиотека кодирования : libebml v1.3.0 + libmatroska v1.4.0
Видео
Идентификатор : 1
Формат : AVC
Формат/Информация : Advanced Video Codec
Профиль формата : [url=mailto:[email protected]][email protected][/url]
Параметр CABAC формата : Да
Параметр ReFrames формата : 8 кадров
Идентификатор кодека : V_MPEG4/ISO/AVC
Продолжительность : 2 ч. 18 м.
Битрейт : 1600 Кбит/сек
Ширина : 1024 пикс.
Высота : 424 пикс.
Соотношение сторон : 2,40:1
Частота кадров : 23,976 кадр/сек
Цветовое пространство : YUV
Подвыборка цветности : 4:2:0
Битовая глубина : 8 бит
Тип развёртки : Прогрессивная
Бит/(Пиксели*Кадры) : 0.154
Размер потока : 1,51 Гбайт (81%)
Заголовок : A Perfect World
Библиотека кодирования : x264 core 125 r2208 d9d2288
Настройки программы : cabac=1 / ref=8 / deblock=1:-1:-1 / analyse=0x3:0x133 / me=umh / subme=9 / psy=1 / psy_rd=1.00:0.10 / mixed_ref=1 / me_range=32 / chroma_me=1 / trellis=2 / 8x8dct=1 / cqm=0 / deadzone=21,11 / fast_pskip=0 / chroma_qp_offset=-3 / threads=6 / lookahead_threads=1 / sliced_threads=0 / nr=0 / decimate=1 / interlaced=0 / bluray_compat=0 / constrained_intra=0 / bframes=3 / b_pyramid=2 / b_adapt=2 / b_bias=0 / direct=3 / weightb=1 / open_gop=0 / weightp=2 / keyint=250 / keyint_min=25 / scenecut=40 / intra_refresh=0 / rc_lookahead=60 / rc=2pass / mbtree=1 / bitrate=1600 / ratetol=1.0 / qcomp=0.60 / qpmin=10 / qpmax=51 / qpstep=4 / cplxblur=20.0 / qblur=0.5 / ip_ratio=1.40 / aq=1:1.00
Язык : English
Аудио #1
Идентификатор : 2
Формат : AC-3
Формат/Информация : Audio Coding 3
Расширение режима : CM (complete main)
Идентификатор кодека : A_AC3
Продолжительность : 2 ч. 18 м.
Вид битрейта : Постоянный
Битрейт : 192 Кбит/сек
Каналы : 2 канала
Расположение каналов : Front: L R
Частота : 48,0 КГц
Битовая глубина : 16 бит
Метод сжатия : С потерями
Размер потока : 190 Мбайт (10%)
Заголовок : Дубляж, Варус-Видео, VHS
Язык : Russian
Аудио #2
Идентификатор : 3
Формат : AC-3
Формат/Информация : Audio Coding 3
Расширение режима : CM (complete main)
Идентификатор кодека : A_AC3
Продолжительность : 2 ч. 18 м.
Вид битрейта : Постоянный
Битрейт : 128 Кбит/сек
Каналы : 2 канала
Расположение каналов : Front: L R
Частота : 48,0 КГц
Битовая глубина : 16 бит
Метод сжатия : С потерями
Размер потока : 127 Мбайт (7%)
Заголовок : Авторский одноголосый, А.Гаврилов
Язык : Russian
Скриншоты:                    
Вне форума [Профиль] [ЛС]
Похожие темы
Форум Тема Автор Торрент Отв. Посл. сообщение
./templates/default/images/folder_dl.gif Обучающее видео Развитие лидерских качеств методом совершенствования / Leading with Applied Improv [2014, лидерские качества, WEBRip, ENG] (Видеоурок) Omen
1 | 0

0 | 243

7

2015-05-19 21:00
Omen Последнее
./templates/default/images/folder_dl.gif Психология, Тренинг, Саморазвитие Оливер Гейссельхарт | Память. Тренируй и совершенствуй! (2016) [FB2] moralis
1 | 0

0 | 189

6

2016-02-17 21:49
moralis Последнее
Показать сообщения:    
Ответить на тему

Текущее время: Сегодня 14:54

Часовой пояс: GMT + 3



Вы не можете начинать темы
Вы не можете отвечать на сообщения
Вы не можете редактировать свои сообщения
Вы не можете удалять свои сообщения
Вы не можете голосовать в опросах
Вы не можете прикреплять файлы к сообщениям
Вы не можете скачивать файлы