Сегодня идет свободное скачивание без начисления Download

Невиновный / An innocent man (Питер Йетс) (Боевик, Драма, Криминал 1989) HDRip

Ответить на тему
 
Автор
Сообщение

Omen ®

Стаж: 4 года 1 месяц

Сообщений: 194359

Торрент-статистика

Пост 09-Авг-2013 18:30

[Цитировать]

Невиновный / An innocent man
«Two cops on the take just made the biggest mistake of their lives. They framed An Innocent Man»
- Год выпуска: 1989
Жанр: Боевик, Драма, Криминал
Описание фильма:
Жизнь преуспевающего авиационного инженера Джими Рэйнвуда давно вошла в привычное русло. Все изменилось в одночасье: Джими оказывается в тюрьме по ложному обвинению. Двое коррумпированных полицейских навсегда перечеркнули его счастье и надежду на будущее. По ту сторону неприступной стены для Джими открылся новый страшный мир, где не живут, а выживают. Но на свободе у невиновного осталась одна заветная цель, ради которой стоит бороться: он ждет того момента, когда сможет взглянуть в лицо своим врагам, чтобы они увидели в его глазах очищающее пламя мести.

Режиссер: Питер Йетс
Актеры: Том Селлек, Ф. Мюррэй Абрахам, Лайла Робинс, Дэвид Раш, Ричард Янг, Баджа Джола, Тодд Графф, М. К. Гейни, Питер Ван Норден, Брюс А. Янг
Продолжительность: 01:53:31
Качество видео: HDRip с |BDRip 720p|
Перевод: Профессиональный (дублированный)

_________________________
Видеокодек: Xvid
Битрейт видео: ~1638 kbps
Размер кадра: 720x400
Аудио: AC3, 2 ch, 192.00 kbps

MI

Общее
Полное имя : An.Innocent.Man.1989.HDRip.avi
Формат : AVI
Формат/Информация : Audio Video Interleave
Размер файла : 1,46 Гбайт
Продолжительность : 1 ч. 53 м.
Общий поток : 1840 Кбит/сек
Программа кодирования : VirtualDubMod 1.5.10.3 | www.virtualdub-fr.org || (build 2550/release)
Библиотека кодирования : VirtualDubMod build 2550/release
Видео
Идентификатор : 0
Формат : MPEG-4 Visual
Профиль формата : Advanced [email protected]
Параметр BVOP формата : 1
Параметр QPel формата : Нет
Параметр GMC формата : Без точки перехода
Параметр матрицы формата : Выборочная
Идентификатор кодека : XVID
Идентификатор кодека/Подсказка : XviD
Продолжительность : 1 ч. 53 м.
Битрейт : 1638 Кбит/сек
Ширина : 720 пикс.
Высота : 400 пикс.
Соотношение сторон : 16:9
Частота кадров : 23,976 кадр/сек
Цветовое пространство : YUV
Подвыборка цветности : 4:2:0
Битовая глубина : 8 бит
Тип развёртки : Прогрессивная
Метод сжатия : С потерями
Бит/(Пиксели*Кадры) : 0.237
Размер потока : 1,30 Гбайт (89%)
Библиотека кодирования : XviD 73
Аудио
Идентификатор : 1
Формат : AC-3
Формат/Информация : Audio Coding 3
Расширение режима : CM (complete main)
Идентификатор кодека : 2000
Продолжительность : 1 ч. 53 м.
Вид битрейта : Постоянный
Битрейт : 192 Кбит/сек
Канал(ы) : 2 канала(ов)
Расположение каналов : Front: L R
Частота : 48,0 КГц
Битовая глубина : 16 бит
Метод сжатия : С потерями
Размер потока : 156 Мбайт (10%)
Выравнивание : Разделение по промежуткам
Продолжительность промежутка : 42 мс. (1,00 видеокадр)
Время предзагрузки промежутка : 500 ms
Скриншоты:        
       
Вне форума [Профиль] [ЛС]
Показать сообщения:    
Ответить на тему

Текущее время: Сегодня 10:56

Часовой пояс: GMT + 3



Вы не можете начинать темы
Вы не можете отвечать на сообщения
Вы не можете редактировать свои сообщения
Вы не можете удалять свои сообщения
Вы не можете голосовать в опросах
Вы не можете прикреплять файлы к сообщениям
Вы не можете скачивать файлы