Сегодня идет свободное скачивание без начисления Download

Коктейль / Cocktail (Роджер Дональдсон) (Мелодрама, Драма 1988) BDRip [H.264]

Ответить на тему
 
Автор
Сообщение

Omen ®

Стаж: 4 года 1 месяц

Сообщений: 194382

Торрент-статистика

Пост 09-Авг-2013 18:32

[Цитировать]

Коктейль / Cocktail - Год выпуска: 1988
Жанр: Мелодрама, Драма
Описание фильма:
Молодой, самоуверенный и амбициозный Брайан Фланаган всегда мечтал сделать карьеру, которая дала бы ему власть, развлечения и быстрые деньги. Однако когда выясняется, что крупные фирмы вовсе не спешат брать его на работу, холодная реальность опустевшего кошелька заставляет его согласиться на работу бармена.
Режиссер: Роджер Дональдсон
Актеры: Том Круз, Брайан Браун, Элизабет Шу, Лоуренс Лакинбилл, Келли Линч, Джина Гершон, Лиза Бейнс, Рон Дин, Роберт Донли, Эллен Фоли
Продолжительность: 01:43:32
Качество видео: BDRip
Перевод: Дублированный , Многоголосый - 2 варианта

Видеокодек: MPEG-4 AVC/H.264
Битрейт видео: ~2000 Kbps
Размер кадра: 960x512
Аудио 1: Dolby AC3 48000Hz stereo 256 Kbps 2ch Front: L R (Дубляж СВ-Дубль)
Аудио 2: Dolby AC3 48000Hz stereo 256 Kbps 2ch Front: L R (MVO Видеосервис)
Аудио 3: Dolby AC3 48000Hz stereo 256 Kbps 2ch Front: L R (MVO Первый канал)

MediaInfo

General
Unique ID : 209930456431578329451453867337622052712 (0x9DEF229E4E21A6A081C29E7174E95F68)
Complete name : Коктейль.mkv
Format : Matroska
Format version : Version 4 / Version 2
File size : 1.98 GiB
Duration : 1h 43mn
Overall bit rate : 2 745 Kbps
Movie name : Коктейль (rip by smithland)
Encoded date : UTC 2010-02-22 21:41:31
Writing application : mkvmerge v5.9.0 ('On The Loose')
Writing library : libebml v1.3.0 + libmatroska v1.4.0
Attachment : Yes
Video
ID : 1
Format : AVC
Format/Info : Advanced Video Codec
Format profile : [url=mailto:[email protected]][email protected][/url]
Format settings, CABAC : Yes
Format settings, ReFrames : 10 frames
Codec ID : V_MPEG4/ISO/AVC
Duration : 1h 43mn
Bit rate : 2 000 Kbps
Width : 960 pixels
Height : 512 pixels
Display aspect ratio : 1.85:1
Frame rate mode : Constant
Frame rate : 23.976 fps
Color space : YUV
Chroma subsampling : 4:2:0
Bit depth : 8 bits
Scan type : Progressive
Bits/(Pixel*Frame) : 0.170
Stream size : 1.39 GiB (70%)
Writing library : x264 core 130 r2273 b3065e6
Encoding settings : cabac=1 / ref=10 / deblock=1:-1:0 / analyse=0x3:0x133 / me=umh / subme=9 / psy=1 / psy_rd=1.00:0.55 / mixed_ref=1 / me_range=20 / chroma_me=1 / trellis=1 / 8x8dct=1 / cqm=0 / deadzone=21,11 / fast_pskip=1 / chroma_qp_offset=-4 / threads=6 / lookahead_threads=1 / sliced_threads=0 / nr=0 / decimate=0 / interlaced=0 / bluray_compat=0 / constrained_intra=0 / bframes=4 / b_pyramid=2 / b_adapt=1 / b_bias=0 / direct=1 / weightb=1 / open_gop=0 / weightp=2 / keyint=240 / keyint_min=24 / scenecut=40 / intra_refresh=0 / rc_lookahead=40 / rc=abr / mbtree=1 / bitrate=2000 / ratetol=1.0 / qcomp=0.60 / qpmin=0 / qpmax=69 / qpstep=4 / ip_ratio=1.40 / aq=1:1.00
Language : Russian
Default : Yes
Forced : Yes
Color primaries : BT.709
Transfer characteristics : BT.709
Matrix coefficients : BT.709
Audio #1
ID : 2
Format : AC-3
Format/Info : Audio Coding 3
Mode extension : CM (complete main)
Format settings, Endianness : Big
Codec ID : A_AC3
Duration : 1h 43mn
Bit rate mode : Constant
Bit rate : 256 Kbps
Channel(s) : 2 channels
Channel positions : Front: L R
Sampling rate : 48.0 KHz
Bit depth : 16 bits
Compression mode : Lossy
Stream size : 190 MiB (9%)
Title : Дубляж СВ-Дубль
Language : Russian
Default : Yes
Forced : Yes
Audio #2
ID : 3
Format : AC-3
Format/Info : Audio Coding 3
Mode extension : CM (complete main)
Format settings, Endianness : Big
Codec ID : A_AC3
Duration : 1h 43mn
Bit rate mode : Constant
Bit rate : 256 Kbps
Channel(s) : 2 channels
Channel positions : Front: L R
Sampling rate : 48.0 KHz
Bit depth : 16 bits
Compression mode : Lossy
Stream size : 190 MiB (9%)
Title : MVO Видеосервис
Language : Russian
Default : No
Forced : No
Audio #3
ID : 4
Format : AC-3
Format/Info : Audio Coding 3
Mode extension : CM (complete main)
Format settings, Endianness : Big
Codec ID : A_AC3
Duration : 1h 43mn
Bit rate mode : Constant
Bit rate : 256 Kbps
Channel(s) : 2 channels
Channel positions : Front: L R
Sampling rate : 48.0 KHz
Bit depth : 16 bits
Compression mode : Lossy
Stream size : 190 MiB (9%)
Title : MVO Первый канал
Language : Russian
Default : No
Forced : No
Menu
00:00:00.000 : en:Chapter 1
00:12:39.133 : en:Chapter 2
00:21:33.166 : en:Chapter 3
00:33:14.325 : en:Chapter 4
00:40:51.866 : en:Chapter 5
00:49:55.075 : en:Chapter 6
01:03:31.641 : en:Chapter 7
01:09:34.628 : en:Chapter 8
01:17:22.387 : en:Chapter 9
01:30:15.827 : en:Chapter 10
Скриншоты:
       
       
Вне форума [Профиль] [ЛС]
Показать сообщения:    
Ответить на тему

Текущее время: Сегодня 00:21

Часовой пояс: GMT + 3



Вы не можете начинать темы
Вы не можете отвечать на сообщения
Вы не можете редактировать свои сообщения
Вы не можете удалять свои сообщения
Вы не можете голосовать в опросах
Вы не можете прикреплять файлы к сообщениям
Вы не можете скачивать файлы