Сегодня идет свободное скачивание без начисления Download

Чужое лицо / Tanin No Kao / The Face of Another (Хироси Тэсигахара) (Фантастика, мистика, драма 1966) DVDRip

Ответить на тему
 
Автор
Сообщение

UndegraundMen ®

Стаж: 3 года 9 месяцев

Сообщений: 28329

Торрент-статистика

Пост 10-Авг-2013 05:00

[Цитировать]

Чужое лицо
Tanin No Kao / The Face of Another
- Русское название: Чужое лицо
Оригинальное название: Tanin No Kao / The Face of Another
Год выпуска: 1966
Страна: Япония
Жанр: Фантастика, мистика, драма
Описание фильма:
В результате неудачного опыта ученый потерял лицо. Но обожженную кожу доктор предлагает скрыть под маской, досконально имитирующей человеческое лицо, и господин Окуяма соглашается. Теперь он другой человек – свободный от прошлой жизни, от собственной жены и друзей, наконец, от самого себя. Чужое лицо позволяет ему пойти на серьезный психологический эксперимент...
Фильм-шок, фильм-откровение, экранизация романа-диптиха гениального японского писателя — экспрессиониста Кобо Абэ. Незаслуженно забытый, этот шедевр японского футуристическо — философского кино положил начало целому направлению, и поныне активно используемому многими кинемотографистами по всему миру.
Режиссер: Хироси Тэсигахара
Актеры: Тацуя Накадаи, Матико Кё, Микидзиро Хира, Кёко Кисида, Эйдзи Окада, Мики Ириэ, Кобо Абэ, Хидэо Кандзэ, Юрико Абэ, Минору Чиаки
Продолжительность: 02:01:57
Качество видео: DVDRip
Перевод: Одноголосый закадровый

Видеокодек: Xvid
Битрейт видео: ~1942 kbps
Размер кадра: 640x480
Аудиокодек и битрейт
1. Русский - AC3 1ch, 192 kbps
2. Японский - AC3 1ch, 256 kbps

MediaInfo

Код:
Общее
Полное имя                               : Чужое лицо.avi
Формат                                   : AVI
Формат/Информация                        : Audio Video Interleave
Профиль формата                          : OpenDML
Размер файла                             : 2,05 Гбайт
Продолжительность                        : 2 ч. 1 м.
Общий поток                              : 2408 Кбит/сек
Название фильма                          : Чужое лицо (1966)
Режиссёр                                 : Rip by morgan73
Жанр                                     : Драма, фантастика
Программа кодирования                    : VirtualDubModRus 1.5.10.2 (build 2542/release)
Формат оригинала/Имя                     : Кинофильм
Примечание                               : [url=http://www.kinozal.tv]www.kinozal.tv[/url]
Видео
Идентификатор                            : 0
Формат                                   : MPEG-4 Visual
Профиль формата                          : Advanced [email protected]
Параметр BVOP формата                    : 2
Параметр QPel формата                    : Нет
Параметр GMC формата                     : Без точки перехода
Параметр матрицы формата                 : Default (MPEG)
Идентификатор кодека                     : XVID
Идентификатор кодека/Подсказка           : XviD
Продолжительность                        : 2 ч. 1 м.
Битрейт                                  : 1942 Кбит/сек
Ширина                                   : 640 пикселей
Высота                                   : 480 пикселей
Соотношение сторон                       : 4:3
Частота кадров                           : 23,976 кадра/сек
Цветовое пространство                    : YUV
Субдискретизация насыщенности            : 4:2:0
Битовая глубина                          : 8 бит
Тип развёртки                            : Прогрессивная
Метод сжатия                             : С потерями
Бит/(Пиксели*Кадры)                      : 0.264
Размер потока                            : 1,65 Гбайт (81%)
Библиотека кодирования                   : XviD 1.2.1 (UTC 2008-12-04)
Аудио #1
Идентификатор                            : 1
Формат                                   : AC-3
Формат/Информация                        : Audio Coding 3
Расширение режима                        : CM (complete main)
Параметр Endianness формата              : Big
Идентификатор кодека                     : 2000
Продолжительность                        : 2 ч. 1 м.
Вид битрейта                             : Постоянный
Битрейт                                  : 256 Кбит/сек
Каналы                                   : 1 канал
Расположение каналов                     : Front: C
Частота                                  : 48,0 КГц
Битовая глубина                          : 16 бит
Метод сжатия                             : С потерями
Размер потока                            : 223 Мбайт (11%)
Выравнивание                             : Разделение по промежуткам
Продолжительность промежутка             : 42  мс. (1,00 видеокадр)
Время предзагрузки промежутка            : 500  мс.
Аудио #2
Идентификатор                            : 2
Формат                                   : AC-3
Формат/Информация                        : Audio Coding 3
Расширение режима                        : CM (complete main)
Параметр Endianness формата              : Big
Идентификатор кодека                     : 2000
Продолжительность                        : 2 ч. 1 м.
Вид битрейта                             : Постоянный
Битрейт                                  : 192 Кбит/сек
Каналы                                   : 1 канал
Расположение каналов                     : Front: C
Частота                                  : 48,0 КГц
Битовая глубина                          : 16 бит
Метод сжатия                             : С потерями
Размер потока                            : 167 Мбайт (8%)
Выравнивание                             : Разделение по промежуткам
Продолжительность промежутка             : 42  мс. (1,00 видеокадр)
Время предзагрузки промежутка            : 500  мс.
Скриншоты:
         
Вне форума [Профиль] [ЛС]
Показать сообщения:    
Ответить на тему

Текущее время: Сегодня 08:53

Часовой пояс: GMT + 3



Вы не можете начинать темы
Вы не можете отвечать на сообщения
Вы не можете редактировать свои сообщения
Вы не можете удалять свои сообщения
Вы не можете голосовать в опросах
Вы не можете прикреплять файлы к сообщениям
Вы не можете скачивать файлы