Сегодня идет свободное скачивание без начисления Download

Поезд-беглец / Runaway Train (Андрей Кончаловский) (Триллер, Драма, Криминал 1985) HDRip

Ответить на тему
 
Автор
Сообщение

Omen ®

Стаж: 4 года 1 месяц

Сообщений: 194394

Торрент-статистика

Пост 10-Авг-2013 20:36

[Цитировать]

Поезд-беглец / Runaway Train
«Desperate, And Determined To Survive.»
- Год выпуска: 1985
Жанр: Триллер, Драма, Криминал
Описание фильма:
Двое сбежавших из тюрьмы уголовников и молодая женщина - работница железной дороги оказываются в ловушке на несущемся поезде. Машиниста нет, тормоза вышли из строя, поезд мчится по заснеженной пустыне навстречу неизвестности...
Режиссер: Андрей Кончаловский
Cценарий: Джордже Миличевич, Пол Зиндел, Эдвард Банкер, ...
Актеры: Джон Войт, Эрик Робертс, Ребекка Де Монрэй, Кайл Т. Хеффнер, Джон П. Райан
Роли дублировали: Леонид Белозорович, Владимир Вихров, Ольга Кузнецова, Вячеслав Баранов, Виктор Петров
Премьера (мир): 15 ноября 1985, ...
Релиз на DVD: 3 февраля 2011, «Новый Диск», ...
Продолжительность: 01:50:45
Качество видео: HDRip
Перевод: Профессиональный (двухголосый закадровый)

______________________________
Видеокодек: Xvid
Битрейт видео: ~1685 kbps
Размер кадра: 704x384
Аудио: AC3, 2 ch, 48.0 khz, 192 kbps

От автора:

«Когда мне позвонил Коппола и предложил снимать фильм по сценарию Куросавы, я чуть не упал в обморок от волнения. Даже если бы сценарий оказался в десять раз хуже, я бы все равно его снимал. В России про «Поезд-беглец» писали, что это типично американский триллер, в Америке - что Кончаловский пытается протащить дешевое ницшеанство и философию Достоевского в американское кино. А сейчас Элиа Казан на своих лекциях в киновузе приводит эту картину как пример единства содержания и формы.
Этого достаточно, чтобы быть счастливым».
Андрей Кончаловский
«Кончаловскому дано умение передавать чувство ужаса, он доверяет жизни вне любого контроля, сталкивает преступление и тиранию, погружает мир в крайности. Его картина обладает зловещей, накатывающей волной жизненной силой подобно стремительному, отчаянному бегу раненного человека».
«Los Angeles Times», 1985 г., Michael Wilmington

MI

Общее
Полное имя : Poezd_Beglec.HDRip.avi
Формат : AVI
Формат/Информация : Audio Video Interleave
Размер файла : 1,46 Гбайт
Продолжительность : 1 ч. 50 м.
Общий поток : 1886 Кбит/сек
Программа кодирования : VirtualDubMod 1.5.10.2 (build 2542/release)
Библиотека кодирования : VirtualDubMod build 2542/release
Видео
Идентификатор : 0
Формат : MPEG-4 Visual
Профиль формата : Advanced [email protected]
Параметр BVOP формата : 1
Параметр QPel формата : Нет
Параметр GMC формата : Без точки перехода
Параметр матрицы формата : Выборочная
Идентификатор кодека : XVID
Идентификатор кодека/Подсказка : XviD
Продолжительность : 1 ч. 50 м.
Битрейт : 1685 Кбит/сек
Ширина : 704 пикс.
Высота : 384 пикс.
Соотношение сторон : 16:9
Частота кадров : 23,976 кадр/сек
Цветовое пространство : YUV
Подвыборка цветности : 4:2:0
Битовая глубина : 8 бит
Тип развёртки : Прогрессивная
Метод сжатия : С потерями
Бит/(Пиксели*Кадры) : 0.260
Размер потока : 1,30 Гбайт (89%)
Библиотека кодирования : XviD 73
Аудио
Идентификатор : 1
Формат : AC-3
Формат/Информация : Audio Coding 3
Расширение режима : CM (complete main)
Идентификатор кодека : 2000
Продолжительность : 1 ч. 50 м.
Вид битрейта : Постоянный
Битрейт : 192 Кбит/сек
Канал(ы) : 2 канала(ов)
Расположение каналов : Front: L R
Частота : 48,0 КГц
Битовая глубина : 16 бит
Метод сжатия : С потерями
Размер потока : 152 Мбайт (10%)
Выравнивание : Разделение по промежуткам
Продолжительность промежутка : 42 мс. (1,00 видеокадр)
Время предзагрузки промежутка : 500 ms
Скриншоты:
         
       
Вне форума [Профиль] [ЛС]
Показать сообщения:    
Ответить на тему

Текущее время: Сегодня 16:38

Часовой пояс: GMT + 3



Вы не можете начинать темы
Вы не можете отвечать на сообщения
Вы не можете редактировать свои сообщения
Вы не можете удалять свои сообщения
Вы не можете голосовать в опросах
Вы не можете прикреплять файлы к сообщениям
Вы не можете скачивать файлы