Сегодня идет свободное скачивание без начисления Download

Прямая и явная угроза / Clear and Present Danger (Филлип Нойс) (Боевик, Триллер, Драма 1994) HDRip [H.264]

Ответить на тему
 
Автор
Сообщение

Omen ®

Стаж: 4 года 1 месяц

Сообщений: 194390

Торрент-статистика

Пост 10-Авг-2013 20:45

[Цитировать]

Прямая и явная угроза
Clear and Present Danger
-«The war of drugs would lead him to the war of power.»- Год выпуска: 1994
Жанр: Боевик, Триллер, Драма
Производство: США/Mace Neufeld Productions, Paramount Pictures
Описание фильма:
Джек Райан на этот раз оказывается во главе отдела разведки ЦРУ, и вхож в Овальный кабинет Белого Дома. Он вынужден бороться против колумбийских наркодельцов, не ведая, что при попустительстве президента США его помощник по национальной безопасности и шеф ЦРУ проводят, с помощью наемников, боевые операции в Колумбии.
Режиссер: Филлип Нойс
Сценарий: Дональд Стюарт, Стивен Зеллиан, Джон Милиус
Продюсер: Лис Керн, Мэйс Ньюфелд, Роберт Реме
Актеры: Харрисон Форд, Уиллем Дефо, Энн Арчер, Жоаким ди Алмейда, Генри Черни, Харрис Юлин, Дональд Моффет, Мигель Сандовал, Бенджамин Брэтт, Рэймонд Крус
Продолжительность: 02:21:15
Качество видео: HDRip
Перевод: Многоголосый закадровый

Дата мировой премьеры: 3 августа 1994
Дата выхода DVD релиза: 26 апреля 2011, «Юниверсал Пикчерс Рус»
Дата выхода Blu-Ray релиза: 4 июня 2012, «Новый Диск»
Видеокодек: MPEG-4 AVC/H.264
Битрейт видео: ~1582 Кбит/сек
Размер кадра: 1024x456
Аудиокодек: AC3 2.0
Битрейт аудио: 192 kbps

Знаете ли вы, что...

Фильм снят по одноимённому роману Тома Клэнси, с участием постоянного персонажа книг Клэнси — Джека Райана.

Реценция с кинопоиска от Jet Ranger:

Обычно долгие фильмы со сложным сюжетом и претензией называться триллерами нудные и тягучие. С другой стороны, обилие экшена редко сопровождает по-настоящему навороченную историю.
В «Прямой и явной угрозе» нет ни слишком долгих разговоров в «комнатных» сценах, ни лишней пальбы в боевых сценах. Всё смотрится более-менее равномерно, что не даёт заскучать в течение тех трёх часов, за которые этот фильм показывают по ТВ.
Идеальное сочетание лучших свойств политического триллера и боевика.

Из книги «3500 кинорецензий»

Эта лента Филлипа Нойса продолжительна по метражу, хотя не кажется затянутой — может быть, из-за того, что политический триллер как бы предполагает детальное раскрытие на экране всех тайных механизмов закулисной игры политиков и секретных служб подчас не только против внешнего врага, но и по отношению друг к другу в связи с корыстными или просто интригантскими соображениями. Первая половина картины, созданной по очередному бестселлеру, который вышел из-под пера Тома Клэнси, бывшего цэрэушника, представляется более интересной и умной, особенно в сравнении с двумя другими фильмами о Джеке Райане, агенте ЦРУ — «Охота за «Красным Октябрём» и «Игры патриотов». Последний из них тоже был поставлен австралийцем Филлипом Нойсом, который добивается в Америке большого коммерческого успеха (вот и «Прямая и явная угроза» превысила стомиллионный рубеж) в тех случаях, когда подавляет свои личные пристрастия к экзистенциальным драмам криминально-патологического характера («Тени павлина», «Мёртвый штиль», «Щепка»).
На сей раз Райан, уже во второй раз сыгранный кассовым американским актёром Хэррисоном Фордом, который вдруг производит на экране впечатление быстро постаревшего героя (всё-таки исполнителю было уже за пятьдесят), оказался — ни более, ни менее — во главе отдела разведки ЦРУ, поэтому вхож в овальный кабинет Белого дома. Он вынужден бороться против колумбийских наркокартелей, не ведая, что при попустительстве президента США его помощник по национальной безопасности и шеф ЦРУ проводят с помощью наёмников боевые операции в Колумбии.
Роман Клэнси и лента Нойса отталкиваются, в общем-то, от известных практически всем фактов о преступной деятельности медельинского картеля и принятых в отношении его главарей решительных мерах. Но постепенно теряешь доверие к рассказываемой истории во второй половине действия — и отнюдь не из-за того, что присочинённое для обострения ситуации начинает резко расходиться с реальностью. Ведь даже не потребуется «несколько хороших парней» — один лишь Джек Райан вновь во всём разберётся, окажется «единственным в поле воином», способным и перед сенатом США поставить вопрос о правомерности действий самого президента. Хорошо, что у авторов хватило благоразумия поставить в финале только жирное многоточие.

оценка: 7.0/10

Награды:

Оскар, 1995 год
Номинации (2):
Лучший звук
Лучший монтаж звука
Премия канала «MTV», 1995 год
Номинации (1):
Лучшая экшн-сцена
Сатурн, 1995 год
Номинации (1):
Лучший приключенческий фильм, боевик или триллер

MediaInfo:

Общее
Уникальный идентификатор : 173299583549101020605570233418034892406 (0x82604925A5C1FAE2A2AEB9A189DACE76)
Полное имя : H:\Downloads\Прямая и явная угроза.mkv
Формат : Matroska
Размер файла : 1,75 Гбайт
Продолжительность : 2 ч. 21 м.
Общий поток : 1775 Кбит/сек
Дата кодирования : UTC 2013-08-09 07:22:48
Программа кодирования : mkvmerge v6.0.0 ('Coming Up For Air') built on Jan 20 2013 09:52:00
Библиотека кодирования : libebml v1.3.0 + libmatroska v1.4.0
Видео
Идентификатор : 1
Формат : AVC
Формат/Информация : Advanced Video Codec
Профиль формата : [url=mailto:[email protected]][email protected][/url]
Параметр CABAC формата : Да
Параметр ReFrames формата : 8 кадров
Идентификатор кодека : V_MPEG4/ISO/AVC
Продолжительность : 2 ч. 21 м.
Битрейт : 1582 Кбит/сек
Ширина : 1024 пикс.
Высота : 456 пикс.
Соотношение сторон : 2,25:1
Частота кадров : 23,976 кадр/сек
Цветовое пространство : YUV
Подвыборка цветности : 4:2:0
Битовая глубина : 8 бит
Тип развёртки : Прогрессивная
Бит/(Пиксели*Кадры) : 0.141
Размер потока : 1,53 Гбайт (87%)
Заголовок : Clear and Present Danger
Библиотека кодирования : x264 core 125 r2208 d9d2288
Настройки программы : cabac=1 / ref=8 / deblock=1:-1:-1 / analyse=0x3:0x133 / me=umh / subme=9 / psy=1 / psy_rd=1.00:0.10 / mixed_ref=1 / me_range=32 / chroma_me=1 / trellis=2 / 8x8dct=1 / cqm=0 / deadzone=21,11 / fast_pskip=0 / chroma_qp_offset=-3 / threads=6 / lookahead_threads=1 / sliced_threads=0 / nr=0 / decimate=1 / interlaced=0 / bluray_compat=0 / constrained_intra=0 / bframes=3 / b_pyramid=2 / b_adapt=2 / b_bias=0 / direct=3 / weightb=1 / open_gop=0 / weightp=2 / keyint=250 / keyint_min=25 / scenecut=40 / intra_refresh=0 / rc_lookahead=60 / rc=2pass / mbtree=1 / bitrate=1582 / ratetol=1.0 / qcomp=0.60 / qpmin=10 / qpmax=51 / qpstep=4 / cplxblur=20.0 / qblur=0.5 / ip_ratio=1.40 / aq=1:1.00
Язык : English
Аудио
Идентификатор : 2
Формат : AC-3
Формат/Информация : Audio Coding 3
Расширение режима : CM (complete main)
Идентификатор кодека : A_AC3
Продолжительность : 2 ч. 21 м.
Вид битрейта : Постоянный
Битрейт : 192 Кбит/сек
Каналы : 2 канала
Расположение каналов : Front: L R
Частота : 48,0 КГц
Битовая глубина : 16 бит
Метод сжатия : С потерями
Размер потока : 194 Мбайт (11%)
Заголовок : Многоголосый закадровый
Язык : Russian
Скриншоты:                    
Вне форума [Профиль] [ЛС]
Показать сообщения:    
Ответить на тему

Текущее время: Сегодня 17:22

Часовой пояс: GMT + 3



Вы не можете начинать темы
Вы не можете отвечать на сообщения
Вы не можете редактировать свои сообщения
Вы не можете удалять свои сообщения
Вы не можете голосовать в опросах
Вы не можете прикреплять файлы к сообщениям
Вы не можете скачивать файлы