Сегодня идет свободное скачивание без начисления Download

Меркурий в опасности / Mercury Rising (Харольд Бекер)[1998., Боевик, Триллер, Драма]HDRip

Ответить на тему
 
Автор
Сообщение

sashau ®

Пол:

Стаж: 4 года 11 месяцев

Сообщений: 3785

Торрент-статистика

Пост 11-Авг-2013 21:16

[Цитировать]

Меркурий в опасности / Mercury Rising - Русское название: Меркурий в опасности
Оригинальное название: Mercury Rising
Год выпуска: 1998
Страна: США
Жанр: Боевик, Триллер, Драма-Описание фильма:
Бывший сотрудник ФБР Арт Джеффрис защищает от безжалостных федеральных агентов Саймона, девятилетнего мальчика, сумевшего вскрыть новый, «не поддающийся дешифровке» правительственный код. Саймон может читать «Меркурий`, новейший шифровальныйкод, так же легко, как другие дети читают книги. Эти способности ставят под угрозу сам смысл существования новейшей разработки стоимостью миллиард долларов, особенно если враги Соединенных Штатов узнают о необыкновенном мальчике и захватят его. Глава Программы Ник Кудроу приказывает устранить»угрозу безопасности страны`, но он не учитывает, что в дело вмешивается Джеффрис. Преследуемые кровавыми убийцами, Саймон и Джеффрис понимают, что никому доверять нельзя. Время работает не на них, идетектив решает, что единственная надежда на спасение — использовать удивительные способности Саймона и призвать убийц к ответу.-Режиссер: Харольд Бекер
Актеры: Брюс Уиллис, Алек Болдуин, Майко Хьюз, Чи МакБрайд, Ким Диккенс, Роберт Стэнтон, Бодхи Пайн Элфмэн, Л. Л. Гинтер, Кэрри Престон, Джон Кэрролл Линч, Питер Стормаре-Продолжительность: 01:51:27
Перевод: Дублированный / Профессиональный (многоголосый, закадровый)- -Дата мировой премьеры: 1 апреля 1998
Дата выхода DVD релиза: 4 июня 2012, «Новый Диск»-Видеокодек: Xvid
Битрейт видео: ~1517 kb/s
Размер кадра: 720x304
Качество видео: HDRip
Аудио#1: 48 kHz, AC3 2.0, ~192 kb/s - дублированный
Аудио#2: 48 kHz, MP3 (2 ch), ~128 kb/s - многоголосый

MediaInfo

Общее
Полное имя : D:\торрент-раздачи\Mercury_v_opasnisti_HDRip.avi
Формат : AVI
Формат/Информация : Audio Video Interleave
Размер файла : 1,44 Гбайт
Продолжительность : 1 ч. 51 м.
Общий поток : 1853 Кбит/сек
Программа кодирования : VirtualDubMod 1.5.10.2 (build 2540/release)
Библиотека кодирования : VirtualDubMod build 2540/release
Видео
Идентификатор : 0
Формат : MPEG-4 Visual
Профиль формата : Advanced [email protected]
Параметр BVOP формата : 1
Параметр QPel формата : Нет
Параметр GMC формата : Без точки перехода
Параметр матрицы формата : Выборочная
Идентификатор кодека : XVID
Идентификатор кодека/Подсказка : XviD
Продолжительность : 1 ч. 51 м.
Битрейт : 1519 Кбит/сек
Ширина : 720 пикселей
Высота : 304 пикселя
Соотношение сторон : 2,35:1
Частота кадров : 23,976 кадра/сек
Цветовое пространство : YUV
Субдискретизация насыщенности : 4:2:0
Битовая глубина : 8 бит
Тип развёртки : Прогрессивная
Метод сжатия : С потерями
Бит/(Пиксели*Кадры) : 0.289
Размер потока : 1,18 Гбайт (82%)
Библиотека кодирования : XviD 1.2.1 (UTC 2008-12-04)
Аудио #1
Идентификатор : 1
Формат : AC-3
Формат/Информация : Audio Coding 3
Расширение режима : CM (complete main)
Параметр Endianness формата : Big
Идентификатор кодека : 2000
Продолжительность : 1 ч. 51 м.
Вид битрейта : Постоянный
Битрейт : 192 Кбит/сек
Каналы : 2 канала
Расположение каналов : Front: L R
Частота : 48,0 КГц
Битовая глубина : 16 бит
Метод сжатия : С потерями
Размер потока : 153 Мбайт (10%)
Выравнивание : Разделение по промежуткам
Продолжительность промежутка : 42 мс. (1,00 видеокадр)
Время предзагрузки промежутка : 500 мс.
Аудио #2
Идентификатор : 2
Формат : MPEG Audio
Версия формата : Version 1
Профиль формата : Layer 3
Режим : Joint stereo
Идентификатор кодека : 55
Идентификатор кодека/Подсказка : MP3
Продолжительность : 1 ч. 51 м.
Вид битрейта : Постоянный
Битрейт : 128 Кбит/сек
Каналы : 2 канала
Частота : 48,0 КГц
Метод сжатия : С потерями
Размер потока : 102 Мбайт (7%)
Выравнивание : Соединение по промежуткам
Продолжительность промежутка : 42 мс. (1,00 видеокадр)
Время предзагрузки промежутка : 504 мс.
Библиотека кодирования : LAME3.98r
Настройки программы : -m j -V 4 -q 2 -lowpass 17 -b 128
Скриншоты:                
Вне форума [Профиль] [ЛС]
Похожие темы
Форум Тема Автор Торрент Отв. Посл. сообщение
./templates/default/images/folder_dl.gif Обучающее видео [Алексей Меркулов] Продвинутый видео курс по AutoCAD 2013 [2012, RUS] Omen
1 | 0

0 | 2259

65

2012-11-08 00:40
Omen Последнее
./templates/default/images/folder_dl.gif Обучающее видео Алексей Меркулов | Комплект курсов по 2D и 3D-моделированию в AutoCAD (2014) Omen
3 | 0

3 | 5031

217

2015-04-24 17:33
Галина123 Последнее
./templates/default/images/folder_dl.gif Обучающее видео Алексей Меркулов | Экспресс курс AutoCAD (2015) PCRec [H.264/720p] [email protected]
1 | 0

0 | 458

26

2015-12-10 23:18
[email protected] Последнее
./templates/default/images/folder_dl.gif Бизнес, Право, Экономика, Финансы Андрей Меркулов, Константин Савохин | Хакеры с барсетками. Пошаговая инструкция по созданию очереди клиентов из интернета (2012) [PDF] [email protected]
3 | 0

0 | 298

6

2016-11-25 18:55
[email protected] Последнее
Показать сообщения:    
Ответить на тему

Текущее время: Сегодня 16:38

Часовой пояс: GMT + 3



Вы не можете начинать темы
Вы не можете отвечать на сообщения
Вы не можете редактировать свои сообщения
Вы не можете удалять свои сообщения
Вы не можете голосовать в опросах
Вы не можете прикреплять файлы к сообщениям
Вы не можете скачивать файлы