Сегодня идет свободное скачивание без начисления Download

Шестое чувство / The Sixth Sense (М. Найт Шьямалан)[1999.,триллер, драма, детектив] BDRip

Ответить на тему
 
Автор
Сообщение

sashau ®

Пол:

Стаж: 4 года 11 месяцев

Сообщений: 3785

Торрент-статистика

Пост 11-Авг-2013 21:37

[Цитировать]

Шестое чувство / The Sixth Sense (1999) BDRip
«The #1 Thriller of all time!»
Русское название: Шестое чувство
Оригинальное название: The Sixth Sense
Год выпуска: 1999
Страна: США
Жанр: триллер, драма, детектив
Описание фильма:
Детский психиатр Малкольм Кроу сталкивается со странным случаем: девятилетнего Коула посещают страшные видения — призраки умерших. Все эти люди когда-то были убиты, и теперь они обрушивают на малыша свой гнетущий страх и отчаянный гнев.
Как врач, Малкольм бессилен помочь. Но как человек, он пытается найти ключ к ужасному миру Коула, в котором веет дыхание смерти и распускаются страшные цветы боли.
Режиссер: М. Найт Шьямалан
Актеры: Брюс Уиллис, Хэйли Джоэл Осмент, Тони Коллетт, Оливия Уильямс, Донни Уолберг, Питер Энтони Тамбакис, Джеффри Зубернис, Брюс Норрис, Гленн Фицджералд, Грег Вуд, КаДи Стрикленд
Продолжительность: 01:47:00
Перевод: Дублированный
Релиз группа: HQCLUB

Дата мировой премьеры: 2 августа 1999
Дата российской премьеры: 24 февраля 2000
Дата релиз на DVD: 31 марта 2011, «Новый Диск»
Видеокодек: XviD
Битрейт видео: 2 062 Kbps
Размер кадра: 704х384
Качество видео: BDRip
Аудио 1: 48 kHz, AC-3 Dolby Digital, 3/2 (L,C,R,l,r) + LFE ch, 448.00 kbps avg (Русский)
Аудио 2: 48 kHz, AC-3 Dolby Digital, 3/2 (L,C,R,l,r) + LFE ch, 448.00 kbps avg (Английский)

Медиаинфо


General
Complete name : G:\фильм\март\Shestoe.Chuvstvo.1999.DUAL.BDRip.XviD.AC3.avi
Format : AVI
Format/Info : Audio Video Interleave
Format profile : OpenDML
File size : 2.18 GiB
Duration : 1h 47mn
Overall bit rate : 2 912 Kbps
Movie name : Шестое чувство / The Sixth Sense (1999) BDRip
Director : DaniLch
Genre : Thriller/Drama
Writing application : VirtualDubMod 1.5.10.2 (build 2542/release)
Video
ID : 0
Format : MPEG-4 Visual
Format profile : Advanced [email protected]
Format settings, BVOP : 1
Format settings, QPel : No
Format settings, GMC : No warppoints
Format settings, Matrix : Custom
Codec ID : XVID
Codec ID/Hint : XviD
Duration : 1h 47mn
Bit rate : 2 062 Kbps
Width : 704 pixels
Height : 384 pixels
Display aspect ratio : 16:9
Frame rate : 23.976 fps
Color space : YUV
Chroma subsampling : 4:2:0
Bit depth : 8 bits
Scan type : Progressive
Compression mode : Lossy
Bits/(Pixel*Frame) : 0.318
Stream size : 1.55 GiB (71%)
Writing library : XviD 1.2.1 (UTC 2008-12-04)
Audio #1
ID : 1
Format : AC-3
Format/Info : Audio Coding 3
Mode extension : CM (complete main)
Codec ID : 2000
Duration : 1h 47mn
Bit rate mode : Constant
Bit rate : 384 Kbps
Channel(s) : 6 channels
Channel positions : Front: L C R, Side: L R, LFE
Sampling rate : 48.0 KHz
Bit depth : 16 bits
Compression mode : Lossy
Stream size : 295 MiB (13%)
Alignment : Split accross interleaves
Interleave, duration : 42 ms (1.00 video frame)
Interleave, preload duration : 500 ms
Audio #2
ID : 2
Format : AC-3
Format/Info : Audio Coding 3
Mode extension : CM (complete main)
Codec ID : 2000
Duration : 1h 47mn
Bit rate mode : Constant
Bit rate : 448 Kbps
Channel(s) : 6 channels
Channel positions : Front: L C R, Side: L R, LFE
Sampling rate : 48.0 KHz
Bit depth : 16 bits
Compression mode : Lossy
Stream size : 344 MiB (15%)
Alignment : Split accross interleaves
Interleave, duration : 42 ms (1.00 video frame)
Interleave, preload duration : 500 ms
Скриншоты:        
Вне форума [Профиль] [ЛС]
Похожие темы
Форум Тема Автор Торрент Отв. Посл. сообщение
./templates/default/images/folder_dl.gif Разное Сергей Шестопалов | Деловая Астрология [2005] [PDF] UndegraundMen
1 | 0

0 | 490

2

2013-08-28 23:02
UndegraundMen Последнее
Показать сообщения:    
Ответить на тему

Текущее время: Сегодня 17:22

Часовой пояс: GMT + 3



Вы не можете начинать темы
Вы не можете отвечать на сообщения
Вы не можете редактировать свои сообщения
Вы не можете удалять свои сообщения
Вы не можете голосовать в опросах
Вы не можете прикреплять файлы к сообщениям
Вы не можете скачивать файлы