Сегодня идет свободное скачивание без начисления Download

Казанова 70 / Casanova 70 (1965) DVDRip [H.264]

Ответить на тему
 
Автор
Сообщение

UndegraundMen ®

Стаж: 3 года 9 месяцев

Сообщений: 28329

Торрент-статистика

Пост 12-Авг-2013 17:00

[Цитировать]

Казанова 70 / Casanova 70 (1965) DVDRip [H.264] -«Made in all the loveliest places.»- Год выпуска: 1965
Жанр: Драма, Комедия
Производство: Италия, Франция/Compagnia Cinematografica Champion, Euro International Film (EIA), Les Films Concordia
Описание фильма:
Для майора Росси соблазнение являлось обычным и простым занятием, женщины становились легкой добычей в его руках. Но после бурного расставания с одной из подружек, которая в пылу гнева публично называет его импотентом, Андре обнаруживает, что она почти права — он уже не жеребец, готовый к совокуплению при любых обстоятельствах.
Теперь он способен вступать в интимную связь с женщиной только когда ему что-то угрожает. Психоаналитик советует перейти к исключительно платоническим отношениям, но современный Казанова предпочитает постоянно пребывать в поисках опасных наслаждений.
Режиссер: Марио Моничелли
Сценарий: Адженоре Инкроччи, Фурио Скарпелли, Марио Моничелли
Продюсер: Карло Понти, Клеман Легуекс
Композитор: Армандо Тровайоли
Актеры: Марчелло Мастроянни, Вирна Лизи, Мариза Мелл, Мишель Мерсье, Энрико Мария Салерно, Лиана Орфей, Гуидо Альберти, Беба Лончар, Мойра Орфей, Маргарет Ли
Продолжительность: 01:42:21
Качество видео: DVDRip
Перевод: Многоголосый закадровый

Дата мировой премьеры: 20 июля 1965
Видеокодек: MPEG-4 AVC/H.264
Битрейт видео: ~1840 Кбит/сек
Размер кадра: 720x416
Аудиокодек: AC3 2.0
Битрейт аудио: 192 kbps

Реценция с кинопоиска от vitafort:

Ну как мужчине без этого ?
Это не кино — это киносокровище. Это не комедия — это непрерывный ржач. К концу фильма мне казалось, что я готов корчиться в судорогах смеха от любого полуслова-полужеста.
Все начинается с того, что бравый майор войск НАТО в своих взаимоотношениях с представительницами противоположного пола ведет себя как-то странновато. Чуть позже выясняется, что недавно в один прекрасный (для него разумеется ужасный) день он, как мужчина, потерпел фиаско с одной из своих подружек. С одной стороны — с кем не бывает, с другой стороны — что для мужчины может быть ужаснее. С одной стороны хочется немедленно самому себе привести более чем убедительные доказательства, что данный эпизод всего лишь досадная осечка, с другой стороны — никуда не деться от вполне закономерных опасений. Именно на этом строится психологическая подоплека дальнейшего повествования.
Воспоминания о приятном времяпровождении так сладко греют душу и хочется новых и новых самоутверждающих побед, но наш бедный герой (великолепный Марчелло Мастроянни) настолько зациклился в своих сомнениях-переживаниях, что не нашел ничего лучшего как довериться психоаналитику. Полушизанутое (как позже выясняется) светило науки, проведя тестирование, посоветовало одно из двух — или платонические отношения, или интим, сопряженный с риском для жизни.
И пошло-поехало. Наставления профессора свято выполняются, но вот только какому из их отдать предпочтение. Разумеется работа хоть и идет на два фронта, но с явным перевесом в пользу последнего.
Дальше рассказывать нет смысла. Фильм представлен из набора малосвязанных между собой эпизодов с похождениями новоявленного Казановы. Сделано сочно, красочно, увлекательно, без малейшей пошлости, с соблюдением тонких психологических нюансов.
И последнее. Уже давно замечено, что притягательность итальянского кинематографа во многом обусловлена в умении смеяться над собой. Здесь эта традиция соблюдена в полной мере. Спасибо Италия.
10 из 10

Награды:

Оскар, 1966 год
Номинации (1):
Лучший оригинальный сценарий
Сан-Себастьян, 1965 год
Победитель (2):
Приз Сан-Себастьяна за лучшую мужскую роль (Марчелло Мастроянни)
Приз Сан-Себастьяна за лучшую работу режиссера (Марио Моничелли)

MediaInfo:

Общее
Уникальный идентификатор : 193134806923065701818669942449373250028 (0x914C6929E77C37A4A432C3BB058101EC)
Полное имя : H:\Downloads\Казанова 70.mkv
Формат : Matroska
Размер файла : 1,45 Гбайт
Продолжительность : 1 ч. 42 м.
Общий поток : 2034 Кбит/сек
Дата кодирования : UTC 2013-08-11 11:43:51
Программа кодирования : mkvmerge v6.0.0 ('Coming Up For Air') built on Jan 20 2013 09:52:00
Библиотека кодирования : libebml v1.3.0 + libmatroska v1.4.0
Видео
Идентификатор : 1
Формат : AVC
Формат/Информация : Advanced Video Codec
Профиль формата : [url=mailto:[email protected]][email protected][/url]
Параметр CABAC формата : Да
Параметр ReFrames формата : 8 кадров
Параметры GOP формата : M=4, N=25
Идентификатор кодека : V_MPEG4/ISO/AVC
Продолжительность : 1 ч. 42 м.
Битрейт : 1840 Кбит/сек
Ширина : 720 пикс.
Высота : 416 пикс.
Соотношение сторон : 16:9
Частота кадров : 25,000 кадр/сек
Цветовое пространство : YUV
Подвыборка цветности : 4:2:0
Битовая глубина : 8 бит
Тип развёртки : Прогрессивная
Бит/(Пиксели*Кадры) : 0.246
Размер потока : 1,29 Гбайт (89%)
Заголовок : Casanova '70
Библиотека кодирования : x264 core 125 r2208 d9d2288
Настройки программы : cabac=1 / ref=8 / deblock=1:-1:-1 / analyse=0x3:0x133 / me=umh / subme=9 / psy=1 / psy_rd=1.00:0.10 / mixed_ref=1 / me_range=32 / chroma_me=1 / trellis=2 / 8x8dct=1 / cqm=0 / deadzone=21,11 / fast_pskip=0 / chroma_qp_offset=-3 / threads=6 / lookahead_threads=1 / sliced_threads=0 / nr=0 / decimate=1 / interlaced=0 / bluray_compat=0 / constrained_intra=0 / bframes=3 / b_pyramid=2 / b_adapt=2 / b_bias=0 / direct=3 / weightb=1 / open_gop=0 / weightp=2 / keyint=250 / keyint_min=25 / scenecut=40 / intra_refresh=0 / rc_lookahead=60 / rc=2pass / mbtree=1 / bitrate=1840 / ratetol=1.0 / qcomp=0.60 / qpmin=10 / qpmax=51 / qpstep=4 / cplxblur=20.0 / qblur=0.5 / ip_ratio=1.40 / aq=1:1.00
Язык : Italian
Аудио
Идентификатор : 2
Формат : AC-3
Формат/Информация : Audio Coding 3
Расширение режима : CM (complete main)
Идентификатор кодека : A_AC3
Продолжительность : 1 ч. 42 м.
Вид битрейта : Постоянный
Битрейт : 192 Кбит/сек
Каналы : 2 канала
Расположение каналов : Front: L R
Частота : 48,0 КГц
Битовая глубина : 16 бит
Метод сжатия : С потерями
Размер потока : 141 Мбайт (9%)
Заголовок : Многоголосый закадровый
Язык : Russian
Скриншоты:                    
Вне форума [Профиль] [ЛС]
Похожие темы
Форум Тема Автор Торрент Отв. Посл. сообщение
./templates/default/images/folder_dl.gif Разное Г.В. Носовский, А.Т. Фоменко | Чудо света на Руси под Казанью. Как было на самом деле [2013] [PDF] UndegraundMen
1 | 0

0 | 425

2

2013-08-28 23:02
UndegraundMen Последнее
./templates/default/images/folder_dl.gif Техническая и научно-популярная литература Сергей Кернбах | Сверхъестестественное. Научно доказанные факты (2015) [FB2] moralis
1 | 0

0 | 211

3

2016-03-15 23:11
moralis Последнее
Показать сообщения:    
Ответить на тему

Текущее время: Сегодня 16:43

Часовой пояс: GMT + 3



Вы не можете начинать темы
Вы не можете отвечать на сообщения
Вы не можете редактировать свои сообщения
Вы не можете удалять свои сообщения
Вы не можете голосовать в опросах
Вы не можете прикреплять файлы к сообщениям
Вы не можете скачивать файлы