Сегодня идет свободное скачивание без начисления Download

Крутой Уокер / Walker, Texas Ranger (Вирджил В. Фогель /Virgil W. Vogel) [1993, Боевик, DVDRip] [AVO] (Леонид Володарский)

Ответить на тему
 
Автор
Сообщение

maxkiller ®

Пол:

Стаж: 3 года 10 месяцев

Сообщений: 282

Торрент-статистика

Пост 14-Авг-2013 20:18

[Цитировать]

Крутой Уокер / Walker, Texas Ranger
Год выпуска: 1993
Страна: США
Жанр: Боевик
Продолжительность: 01:30:28
Перевод: Авторский (одноголосный) [Леонид Володарский]
Режиссер: Вирджил В. Фогель /Virgil W. Vogel
В ролях: Чак Норрис, Кларенс Гильярд, Гэйлард Сартейн, Шири Дж.Уилсон, Флойд «Ред Кроу» Уэстермен, Маршалл Р. Тиг, Илья Баскин, Рода Гемигнани, Джеймс Друри
Описание: Переживший серьезную личную драму техасский рэйнджер Уокер (в исполнении Чака Норриса) с усталым видом без труда расправляется с несколькими бандюгами кряду, с усталым видом защищает изнасилованную девушку от других бандюг и все с тем же усталым видом, а также с помощью напарника, чернокожего полицейского Триветта, разгадывает замысел главаря команды профессиональных убийц и грабителей, задумавшего взять содержимое сейфов четырех банков одновременно.

Качество: DVDRip
Формат: AVI
Видео кодек: DivX
Аудио кодек: AC3
Видео: 720x528 (1.36:1), 25 fps, DivX Codec 5.x or 6.x ~1150 kbps avg, 0.12 bit/pixel
Аудио: AC3 Dolby Digital, 48000 Hz, 2/0 (mono) ch, 192.00 kbps avg

О релизе

Дорожка с Л. Володарским синхронизирована, ремастирована и наложена ale_x2008 при помощи Adobe Audition, Sony Vegas и VirtualDubMod под данный релиз.
Источник звуковой дорожки - VHSRip

MI

E:\INTERNET\Walker, Texas Ranger.1993.DVDRip.[AVO_Volodarsky].avi
General
Complete name : E:\INTERNET\Walker, Texas Ranger.1993.DVDRip.[AVO_Volodarsky].avi
Format : AVI
Format/Info : Audio Video Interleave
File size : 875 MiB
Duration : 1h 30mn
Overall bit rate : 1 352 Kbps
Writing application : VirtualDubMod 1.5.10.3 (build 2550/release)
Writing library : VirtualDubMod build 2550/release
Video #0
ID : 0
Format : MPEG-4 Visual
Format settings, BVOP : 1
Format settings, QPel : No
Format settings, GMC : No warppoints
Format settings, Matrix : Default (H.263)
Muxing mode : Packed bitstream
Codec ID : DX50
Codec ID/Hint : DivX 5
Duration : 1h 30mn
Bit rate : 1 150 Kbps
Width : 720 pixels
Height : 528 pixels
Display aspect ratio : 4:3
Frame rate : 25.000 fps
Color space : YUV
Chroma subsampling : 4:2:0
Bit depth : 8 bits
Scan type : Progressive
Compression mode : Lossy
Bits/(Pixel*Frame) : 0.121
Stream size : 745 MiB (85%)
Writing library : DivX 6.2.5 (UTC 2006-07)
Audio #1
ID : 1
Format : AC-3
Format/Info : Audio Coding 3
Mode extension : CM (complete main)
Format settings, Endianness : Big
Codec ID : 2000
Duration : 1h 30mn
Bit rate mode : Constant
Bit rate : 192 Kbps
Channel(s) : 2 channels
Channel positions : Front: L R
Sampling rate : 48.0 KHz
Bit depth : 16 bits
Compression mode : Lossy
Stream size : 124 MiB (14%)
Alignment : Split accross interleaves
Interleave, duration : 40 ms (1.00 video frame)
Interleave, preload duration : 500 ms

Скриншоты

     
Вне форума [Профиль] [ЛС]
Показать сообщения:    
Ответить на тему

Текущее время: Сегодня 15:08

Часовой пояс: GMT + 3



Вы не можете начинать темы
Вы не можете отвечать на сообщения
Вы не можете редактировать свои сообщения
Вы не можете удалять свои сообщения
Вы не можете голосовать в опросах
Вы не можете прикреплять файлы к сообщениям
Вы не можете скачивать файлы