Today is a free download without charge Download

(Alternative) Egypt Central - Egypt Central - 2008, FLAC (tracks+.cue), lossless

Reply to topic
 
Author
Message

Nugeiro ®

Gender:

Longevity: 9 years 7 months

Posts: 1981

Location: Украина, Шостка

Торрент-статистика

Post 11-Sep-2011 08:59

[Quote]

Egypt Central - Egypt Central
Жанр: Alternative
Год выпуска диска: 2008
Производитель диска: USA (Fat Lady Music/ILG)
Аудио кодек: FLAC
Тип рипа: tracks+.cue
Битрейт аудио: lossless
Продолжительность: 38:06
Трэклист:
1. Different
2. You Make Me Sick
3. Over And Under
4. Taking You Down
5. Leap Of Faith
6. The Way
7. Push Away
8. Walls Of Innocence
9. Locked And Caged
10. Just Another Lie
11. Home

Отчёт EAC

Код:
EAC extraction logfile from 15. January 2008, 15:10 for CD
Egypt Central / Egypt Central
Used drive : HP DVD Writer 740e Adapter: 2 ID: 0
Read mode : Secure with NO C2, accurate stream, disable cache
Read offset correction : 102
Overread into Lead-In and Lead-Out : No
Used output format : C:\Program Files\FLAC\flac.exe (User Defined Encoder)
192 kBit/s
Additional command line options : -V -8 -T "artist=%a" -T "title=%t" -T "album=%g" -T "date=%y" -T "tracknumber=%n" -T "genre=%m" %s
Other options :
Fill up missing offset samples with silence : Yes
Delete leading and trailing silent blocks : No
Native Win32 interface for Win NT & 2000
Track 1
Filename D:\FlacRip\Egypt Central - Egypt Central (2008)\01 - Different.wav
Pre-gap length 0:00:02.00
Peak level 99.9 %
Track quality 100.0 %
Test CRC A160550A
Copy CRC A160550A
Copy OK
Track 2
Filename D:\FlacRip\Egypt Central - Egypt Central (2008)\02 - You Make Me Sick.wav
Peak level 99.9 %
Track quality 100.0 %
Test CRC 1F65F187
Copy CRC 1F65F187
Copy OK
Track 3
Filename D:\FlacRip\Egypt Central - Egypt Central (2008)\03 - Over And Under.wav
Peak level 97.0 %
Track quality 100.0 %
Test CRC 0585B7B0
Copy CRC 0585B7B0
Copy OK
Track 4
Filename D:\FlacRip\Egypt Central - Egypt Central (2008)\04 - Taking You Down.wav
Peak level 99.9 %
Track quality 99.9 %
Test CRC E22C6913
Copy CRC E22C6913
Copy OK
Track 5
Filename D:\FlacRip\Egypt Central - Egypt Central (2008)\05 - Leap Of Faith.wav
Peak level 100.0 %
Track quality 100.0 %
Test CRC 7FF43A99
Copy CRC 7FF43A99
Copy OK
Track 6
Filename D:\FlacRip\Egypt Central - Egypt Central (2008)\06 - The Way.wav
Peak level 99.9 %
Track quality 100.0 %
Test CRC 06C78B41
Copy CRC 06C78B41
Copy OK
Track 7
Filename D:\FlacRip\Egypt Central - Egypt Central (2008)\07 - Push Away.wav
Peak level 99.9 %
Track quality 100.0 %
Test CRC 5C92FF47
Copy CRC 5C92FF47
Copy OK
Track 8
Filename D:\FlacRip\Egypt Central - Egypt Central (2008)\08 - Walls Of Innocence.wav
Peak level 99.9 %
Track quality 100.0 %
Test CRC 68B85703
Copy CRC 68B85703
Copy OK
Track 9
Filename D:\FlacRip\Egypt Central - Egypt Central (2008)\09 - Locked And Caged.wav
Peak level 99.9 %
Track quality 100.0 %
Test CRC 684290D2
Copy CRC 684290D2
Copy OK
Track 10
Filename D:\FlacRip\Egypt Central - Egypt Central (2008)\10 - Just Another Lie.wav
Peak level 99.9 %
Track quality 99.9 %
Test CRC 773D80B3
Copy CRC 773D80B3
Copy OK
Track 11
Filename D:\FlacRip\Egypt Central - Egypt Central (2008)\11 - Home.wav
Peak level 99.9 %
Track quality 99.9 %
Test CRC 2B9E24B5
Copy CRC 2B9E24B5
Copy OK
No errors occured
End of status report

_________________
Other forum [Profile] [PM]
Display posts from previous:    
Reply to topic

The time now is: Today 22:34

All times are GMT + 3 Hours



You cannot post new topics in this forum
You cannot reply to topics in this forum
You cannot edit your posts in this forum
You cannot delete your posts in this forum
You cannot vote in polls in this forum
You cannot attach files in this forum
You cannot download files in this forum