Сегодня идет свободное скачивание без начисления Download

Я больше никогда не буду воевать / I Will Fight No More Forever (1975) DVDRip

Ответить на тему
 
Автор
Сообщение

UndegraundMen ®

Стаж: 3 года 9 месяцев

Сообщений: 28329

Торрент-статистика

Пост 16-Авг-2013 11:00

[Цитировать]

Я больше никогда не буду воевать / I Will Fight No More Forever (1975) DVDRip- Год выпуска: 1975
Жанр: Драма, Исторический, Вестерн
Страна: США
Описание фильма:
Историческая драма о последних днях свободной жизни одной из групп индейского племени Нез Перс (Проткнутые Носы) под предводительством вождя Джозефа. Стремясь сохранить свою свободу, небольшая группа индейцев под руководством миролюбивого Вождя прорывается в Канаду через неизвестные территории. Их преследовали две кавалерии армии США, отдельный пехотный батальон ополченцев, три генерала (Говард, Гиббон, Майлс), но всякий раз, когда уже казалось, что все пути спасения перекрыты солдатами, Джозефу удавалось уйти...
Режиссер: Ричард Ти Хеффрон / Richard T. Heffron
Актеры: Джеймс Уитмор, Нед Ромеро, Сэм Эллиотт, Ник Рамус, Линда Редфирн
Продолжительность: 01:45:45
Качество видео: DVDRip
Перевод: Одноголосый закадровый (Architector44)
Автор перевода: KwasiND

Дата мировой премьеры: 14 апреля 1975
Рип взят из сети и оставлен без изменений, за рип спасибо Architector44
Видеокодек: DivX 4
Битрейт видео: ~2 495 Kbps
Размер кадра: 720х480
Аудиокодек: MP3 2 ch
Битрейт аудио: 192 Kbps
Сэмпл: Ссылка

Медиаинфо

Format : AVI
Format/Info : Audio Video Interleave
File size : 2.00 GiB
Duration : 1h 45mn
Overall bit rate : 2 701 Kbps
Video
ID : 0
Format : MPEG-4 Visual
Format settings, BVOP : No
Format settings, QPel : No
Format settings, GMC : No warppoints
Format settings, Matrix : Default (H.263)
Codec ID : DIVX
Codec ID/Info : Project Mayo
Codec ID/Hint : DivX 4
Duration : 1h 45mn
Source duration : 1h 45mn
Bit rate : 2 495 Kbps
Width : 720 pixels
Height : 480 pixels
Display aspect ratio : 4:3
Frame rate : 29.970 fps
Standard : NTSC
Color space : YUV
Chroma subsampling : 4:2:0
Bit depth : 8 bits
Scan type : Progressive
Compression mode : Lossy
Bits/(Pixel*Frame) : 0.241
Stream size : 1.84 GiB (92%)
Writing library : avc2.0.11.1110
Audio
ID : 1
Format : MPEG Audio
Format version : Version 1
Format profile : Layer 3
Mode : Joint stereo
Mode extension : MS Stereo
Codec ID : 55
Codec ID/Hint : MP3
Duration : 1h 45mn
Bit rate mode : Constant
Bit rate : 192 Kbps
Channel(s) : 2 channels
Sampling rate : 48.0 KHz
Compression mode : Lossy
Stream size : 145 MiB (7%)
Alignment : Aligned on interleaves
Interleave, duration : 24 ms (0.72 video frame)
Скриншоты:
         
       
Время раздачи: с 10:00 до 24:00 (до 10 скачавших)
Вне форума [Профиль] [ЛС]
Показать сообщения:    
Ответить на тему

Текущее время: Сегодня 16:39

Часовой пояс: GMT + 3



Вы не можете начинать темы
Вы не можете отвечать на сообщения
Вы не можете редактировать свои сообщения
Вы не можете удалять свои сообщения
Вы не можете голосовать в опросах
Вы не можете прикреплять файлы к сообщениям
Вы не можете скачивать файлы