Сегодня идет свободное скачивание без начисления Download

Гроздья гнева / The Grapes of Wrath (1940) [H.264] BDRip

Ответить на тему
 
Автор
Сообщение

UndegraundMen ®

Стаж: 3 года 9 месяцев

Сообщений: 28329

Торрент-статистика

Пост 16-Авг-2013 11:00

[Цитировать]

Гроздья гнева / The Grapes of Wrath (1940) [H.264] BDRip-«The thousands who have read the book will know why WE WILL NOT SELL ANY CHILDREN TICKETS to see this picture!» Год выпуска: 1940
Выпущено: США / 20th Century Fox Film Corporation
Жанр: Драма
Возраст: 16+ |зрителям, достигшим 16 лет|
Описание фильма:
После тюремного срока за убийство, Том Джоад возвращается на свое семейное ранчо, которое к тому времени полностью разорилось и прибывает в запустении. В отсутствие какой-либо перспективы найти работу в засушливой Оклахоме, вся семья собирает свой скарб и отправляется на «землю обетованную» — в Калифорнию. Но трудный путь и тяжкие условия не приносят искомой надежды, и даже единство семьи подвергается испытанию, одному из многих, с которыми приходится сталкиваться.
Режиссер: Джон Форд
Актеры: Генри Фонда, Джейн Дарвелл, Джон Кэрредин, Чарли Грейпвин, Доррис Баудон, Расселл Симпсон, Джон Кволен, Эдди Куиллан, Зеффи Тилбури, Фрэнк Салли, Фрэнк Дариен, Дэррил Хикман, Ширли Миллс, Роджер Имхоф, Грант Митчел, Чарльз Д. Браун, Джон Арлидж, Уорд Бонд, Гарри Тайлер, Уильям Поли, Чарльз Таннен, Селмер Джексон, Чарльз Миддлтон, Эдди Уоллер, Пол Гилфойл, Дэвид Хьюз, Клифф Кларк, Джо Сойер, Фрэнк Фэйлен, Адриан Моррис, Холлис Джуэлл, Роберт Хоманс, Ирвинг Бэйкон, Китти МакХью, Роберт Шоу
Продолжительность: 02:09:08
Качество видео: BDRip
Перевод: Профессиональный многоголосый, профессиональный одноголосый
Язык субтитров: Русский (форсированные), русский (20 Век Фокс СНГ), русский (SomeWax), украинский, английский
Вид субтитров: Вшитые
Релиз от: Rip by

Трейлер
Дата мировой премьеры: 24 января 1940
Дата российской премьеры: 26 ноября 2009
Видеокодек: MPEG-4 AVC/H.264
Битрейт видео: ~2163 Кбит/сек
Размер кадра: 768x576
Аудио #1: Русский (АС3, 2 ch, 192 Кбит/с) / Профессиональный многоголосый (20 Век Фокс СНГ)
Аудио #2: Русский (АС3, 2 ch, 192 Кбит/с) / Профессиональный многоголосый (SomeWax)
Аудио #3: Русский (АС3, 2 ch, 192 Кбит/с) / Профессиональный многоголосый (DVD Магия)
Аудио #4: Русский (АС3, 2 ch, 192 Кбит/с) / Профессиональный одноголосый (Светла)
Аудио #5: Английский (АС3, 1 ch, 448 Кбит/с)

MediaInfo:

Уникальный идентификатор : 172227794218916130596316568989542171331 (0x8191DDDA6D93D7ED8C673DD87EA0C2C3)
Полное имя : The.Grapes.o.Wrath.1940.BDRip.mkv
Формат : Matroska
Версия формата : Version 2
Размер файла : 3,05 Гбайт
Продолжительность : 2 ч. 9 м.
Общий поток : 3383 Кбит/сек
Дата кодирования : UTC 2013-08-08 16:55:39
Программа кодирования : mkvmerge v4.3.0 ('Escape from the Island') сборка от Sep 5 2010 10:30:51
Библиотека кодирования : libebml v1.0.0 + libmatroska v1.0.0
Видео
Идентификатор : 1
Формат : AVC
Формат/Информация : Advanced Video Codec
Профиль формата : [url=mailto:[email protected]][email protected][/url]
Параметр CABAC формата : Да
Параметр ReFrames формата : 10 кадров
Идентификатор кодека : V_MPEG4/ISO/AVC
Продолжительность : 2 ч. 9 м.
Битрейт : 2163 Кбит/сек
Ширина : 768 пикселей
Высота : 576 пикселей
Соотношение сторон : 4:3
Режим частоты кадров : Постоянный
Частота кадров : 23,976 кадра/сек
Цветовое пространство : YUV
Субдискретизация насыщенности : 4:2:0
Битовая глубина : 8 бит
Тип развёртки : Прогрессивная
Бит/(Пиксели*Кадры) : 0.204
Размер потока : 1,89 Гбайт (62%)
Заголовок : The.Grapes.o.Wrath.1940.x264.BDRip(AVC)-neni
Библиотека кодирования : x264 core 130 r2273 b3065e6
Настройки программы : cabac=1 / ref=10 / deblock=1:-3:-3 / analyse=0x3:0x113 / me=umh / subme=11 / psy=1 / psy_rd=1.00:0.20 / mixed_ref=1 / me_range=48 / chroma_me=1 / trellis=2 / 8x8dct=1 / cqm=0 / deadzone=21,11 / fast_pskip=0 / chroma_qp_offset=-3 / threads=9 / lookahead_threads=1 / sliced_threads=0 / nr=0 / decimate=0 / interlaced=0 / bluray_compat=0 / constrained_intra=0 / bframes=8 / b_pyramid=2 / b_adapt=2 / b_bias=0 / direct=3 / weightb=1 / open_gop=0 / weightp=2 / keyint=240 / keyint_min=23 / scenecut=40 / intra_refresh=0 / rc=2pass / mbtree=0 / bitrate=2163 / ratetol=1.0 / qcomp=0.60 / qpmin=0 / qpmax=69 / qpstep=4 / cplxblur=20.0 / qblur=0.5 / ip_ratio=1.40 / pb_ratio=1.30 / aq=1:1.00
Язык : Russian
Default : Да
Forced : Да
Аудио #1
Идентификатор : 2
Формат : AC-3
Формат/Информация : Audio Coding 3
Расширение режима : CM (complete main)
Параметр Endianness формата : Big
Идентификатор кодека : A_AC3
Продолжительность : 2 ч. 9 м.
Вид битрейта : Постоянный
Битрейт : 192 Кбит/сек
Каналы : 2 канала
Расположение каналов : Front: L R
Частота : 48,0 КГц
Битовая глубина : 16 бит
Метод сжатия : С потерями
Размер потока : 177 Мбайт (6%)
Заголовок : Mnogogolosiy (20 vek Fox)
Язык : Russian
Default : Да
Forced : Да
Аудио #2
Идентификатор : 3
Формат : AC-3
Формат/Информация : Audio Coding 3
Расширение режима : CM (complete main)
Параметр Endianness формата : Big
Идентификатор кодека : A_AC3
Продолжительность : 2 ч. 9 м.
Вид битрейта : Постоянный
Битрейт : 192 Кбит/сек
Каналы : 2 канала
Расположение каналов : Front: L R
Частота : 48,0 КГц
Битовая глубина : 16 бит
Метод сжатия : С потерями
Размер потока : 177 Мбайт (6%)
Заголовок : Mnogogolosiy (SomeWax)
Язык : Russian
Default : Нет
Forced : Нет
Аудио #3
Идентификатор : 4
Формат : AC-3
Формат/Информация : Audio Coding 3
Расширение режима : CM (complete main)
Параметр Endianness формата : Big
Идентификатор кодека : A_AC3
Продолжительность : 2 ч. 9 м.
Вид битрейта : Постоянный
Битрейт : 192 Кбит/сек
Каналы : 2 канала
Расположение каналов : Front: L R
Частота : 48,0 КГц
Битовая глубина : 16 бит
Метод сжатия : С потерями
Размер потока : 177 Мбайт (6%)
Заголовок : Mnogogolosiy (DVD Magija)
Язык : Russian
Default : Нет
Forced : Нет
Аудио #4
Идентификатор : 5
Формат : AC-3
Формат/Информация : Audio Coding 3
Расширение режима : CM (complete main)
Параметр Endianness формата : Big
Идентификатор кодека : A_AC3
Продолжительность : 2 ч. 9 м.
Вид битрейта : Постоянный
Битрейт : 192 Кбит/сек
Каналы : 2 канала
Расположение каналов : Front: L R
Частота : 48,0 КГц
Битовая глубина : 16 бит
Метод сжатия : С потерями
Размер потока : 177 Мбайт (6%)
Заголовок : Odnogolosiy (Swetla)
Язык : Russian
Default : Нет
Forced : Нет
Аудио #5
Идентификатор : 6
Формат : AC-3
Формат/Информация : Audio Coding 3
Расширение режима : CM (complete main)
Параметр Endianness формата : Big
Идентификатор кодека : A_AC3
Продолжительность : 2 ч. 9 м.
Вид битрейта : Постоянный
Битрейт : 448 Кбит/сек
Каналы : 1 канал
Расположение каналов : Front: C
Частота : 48,0 КГц
Битовая глубина : 16 бит
Метод сжатия : С потерями
Размер потока : 414 Мбайт (13%)
Заголовок : Original
Язык : English
Default : Нет
Forced : Нет
Текст #1
Идентификатор : 7
Формат : UTF-8
Идентификатор кодека : S_TEXT/UTF8
Идентификатор кодека/Информация : UTF-8 Plain Text
Заголовок : Forced
Язык : Russian
Default : Да
Forced : Нет
Текст #2
Идентификатор : 8
Формат : UTF-8
Идентификатор кодека : S_TEXT/UTF8
Идентификатор кодека/Информация : UTF-8 Plain Text
Заголовок : Fox
Язык : Russian
Default : Нет
Forced : Нет
Текст #3
Идентификатор : 9
Формат : UTF-8
Идентификатор кодека : S_TEXT/UTF8
Идентификатор кодека/Информация : UTF-8 Plain Text
Заголовок : SomeWax
Язык : Russian
Default : Нет
Forced : Нет
Текст #4
Идентификатор : 10
Формат : UTF-8
Идентификатор кодека : S_TEXT/UTF8
Идентификатор кодека/Информация : UTF-8 Plain Text
Язык : Ukrainian
Default : Нет
Forced : Нет
Текст #5
Идентификатор : 11
Формат : UTF-8
Идентификатор кодека : S_TEXT/UTF8
Идентификатор кодека/Информация : UTF-8 Plain Text
Заголовок : SDH
Язык : English
Default : Нет
Forced : Нет
Меню
00:00:00.000 : en:0:00:00.000
00:01:04.898 : en:0:01:04.898
00:04:19.676 : en:0:04:19.676
00:09:48.421 : en:0:09:48.421
00:13:25.221 : en:0:13:25.221
00:20:28.644 : en:0:20:28.644
00:22:40.775 : en:0:22:40.775
00:25:56.596 : en:0:25:56.596
00:28:19.112 : en:0:28:19.112
00:30:49.263 : en:0:30:49.263
00:35:56.570 : en:0:35:56.570
00:41:11.885 : en:0:41:11.885
00:46:34.207 : en:0:46:34.207
00:50:40.245 : en:0:50:40.245
00:55:05.301 : en:0:55:05.301
01:00:26.455 : en:1:00:26.455
01:02:35.960 : en:1:02:35.960
01:09:08.352 : en:1:09:08.352
01:13:37.412 : en:1:13:37.412
01:17:51.291 : en:1:17:51.291
01:24:50.501 : en:1:24:50.501
01:32:37.384 : en:1:32:37.384
01:37:18.665 : en:1:37:18.665
01:39:35.802 : en:1:39:35.802
01:44:55.914 : en:1:44:55.914
01:47:35.865 : en:1:47:35.865
01:51:26.179 : en:1:51:26.179
01:54:30.279 : en:1:54:30.279
01:57:58.195 : en:1:57:58.195
02:02:58.912 : en:2:02:58.912
02:04:12.653 : en:2:04:12.653
02:06:05.974 : en:2:06:05.974
02:09:06.738 : en:2:09:06.738
Скриншоты:
       
       

Рецензия, отзыв о фильме

"Гроздья Гнева" - самая известная черно-белая эпическая драма режиссера Джона Форда - блестящая экранизация лучшего романа 1939 года знаменитого писателя Джона Стейнбека о временах депрессии.
Гонимые кризисом разорившиеся фермеры из Оклахомы ищут лучшей жизни в Калифорнии, но на новом месте они не обретают счастья и спокойствия. Великая депрессия преследует и настегает их...
Этот фильм в Америке считают первой несентиментальной кинолентой о простых людях. В своем герое Томе Джоаде Генри Фонда сумел раскрыть очень важную грань национального характера американцев, правдоискательство. Представляя огромную армию фермеров, согнанных со всей земли, он служит олицетворением их поисков социальной справедливости. Фильм смело можно назвать золотой классикой кино, пропустить которую нельзя. Хенри Фонда сыграл, пожалуй, лучшую роль в своей жизни. За эту картину режиссер Джон Форд получил своего второго "Оскара", Джейн Даруэлл "Оскара" за роль Мамаши Джоад. Оператор картины Грегг Толэнд, использовав черно-белые текстуры с ограниченным освещением, с проницательным реализмом превосходно воссоздал образ сельской Америки тридцатых годов.
Фильм шел в советском прокате, но был снят и запрещен, так как образы разоренных и безработных американцев были слишком благополучны и не соответствовали принятым в СССР канонам.
Семь номинаций на "Оскар" в 1941 году.
Вне форума [Профиль] [ЛС]
Показать сообщения:    
Ответить на тему

Текущее время: Сегодня 02:55

Часовой пояс: GMT + 3



Вы не можете начинать темы
Вы не можете отвечать на сообщения
Вы не можете редактировать свои сообщения
Вы не можете удалять свои сообщения
Вы не можете голосовать в опросах
Вы не можете прикреплять файлы к сообщениям
Вы не можете скачивать файлы