Сегодня идет свободное скачивание без начисления Download

Красный берег / Beach Red (1967) HDTVRip

Ответить на тему
 
Автор
Сообщение

UndegraundMen ®

Стаж: 4 года 9 месяцев

Сообщений: 26429

Торрент-статистика

Пост 16-Авг-2013 11:00

[Цитировать]

Красный берег / Beach Red (1967) HDTVRip- Год выпуска: 1967
Жанр: Военный, Драма
Описание фильма:
Экранизация знаменитого некогда военного романа Питера Боумана. Действие происходит во время Второй мировой войны на островах Тихого океана, оккупированными японскими захватчиками. Морские пехотинцы США высаживаются на остров, занятый японскими войсками. Как это характерно для американских фильмов, война представлена не глазами профессиональных военных, а сквозь призму обычных гражданских, против своей воли попавших на передовую...
Режиссер: Корнел Уайльд
Актеры: Корнел Уайлд, Рип Торн, Барр ДеБеннинг, Патрик Вульф, Джин Уоллес, Хайме Санчес, Дэйл Ишимото, Генки Кояма, Джин Блэйкли, Майкл Парсонс, Норман Пак, Дьюи Стрингер, Фред Галанг, Хироши Кияма
Продолжительность: 01:39:11
Качество видео: HDTVRip
Перевод: Двухголосый закадровый
Автор перевода: НТВ+
Доп. информация: HDTVRip by alf62

Дата мировой премьеры: 3 августа 1967, США
Видеокодек: DivX 5
Битрейт видео: ~1873 kb/s
Размер кадра: 720x400
Аудиокодек: АС3
Битрейт аудио: 192 kb/s (2 канала, stereo) CBR
Сэмпл: Ссылка
MediaInfo
General
Complete name : E:\Торенты\[стерилизуемый трекер].org\Красный берег\Krasnyj.bereg.1967.DivX.HDTVRip.alf62.avi
Format : AVI
Format/Info : Audio Video Interleave
File size : 1.44 GiB
Duration : 1h 39mn
Overall bit rate : 2 072 Kbps
Writing application : VirtualDubModRus 1.5.10.2 (build 2542/release)
Writing library : VirtualDubMod build 2542/release
Video
ID : 0
Format : MPEG-4 Visual
Format profile : Advanced [email protected]
Format settings, BVOP : 2
Format settings, QPel : No
Format settings, GMC : No warppoints
Format settings, Matrix : Default (MPEG)
Codec ID : DX50
Codec ID/Hint : DivX 5
Duration : 1h 39mn
Bit rate : 1 870 Kbps
Width : 720 pixels
Height : 400 pixels
Display aspect ratio : 16:9
Frame rate : 25.000 fps
Color space : YUV
Chroma subsampling : 4:2:0
Bit depth : 8 bits
Scan type : Progressive
Compression mode : Lossy
Bits/(Pixel*Frame) : 0.260
Stream size : 1.30 GiB (90%)
Writing library : XviD 73
Audio
ID : 1
Format : AC-3
Format/Info : Audio Coding 3
Mode extension : CM (complete main)
Format settings, Endianness : Big
Codec ID : 2000
Duration : 1h 39mn
Bit rate mode : Constant
Bit rate : 192 Kbps
Channel(s) : 2 channels
Channel positions : Front: L R
Sampling rate : 48.0 KHz
Bit depth : 16 bits
Compression mode : Lossy
Stream size : 136 MiB (9%)
Alignment : Split accross interleaves
Interleave, duration : 40 ms (1.00 video frame)
Interleave, preload duration : 500 ms
Скриншоты
         
         
Время раздачи: с 23:00 до 8:30
Вне форума [Профиль] [ЛС]
Похожие темы
Форум Тема Автор Торрент Отв. Посл. сообщение
./templates/default/images/folder_dl.gif Медицина и Здоровье Н.В. Красная | Вкусная книга. Ваши лучшие рецепты [2010] [PDF] sashau
0 | 1

0 | 375

2

2012-12-31 09:00
sashau Последнее
./templates/default/images/folder_dl.gif Медицина и Здоровье Иван Дубровин | Все о красном вине [2009] [PDF] UndegraundMen
0 | 1

0 | 408

2

2013-08-25 23:07
UndegraundMen Последнее
./templates/default/images/folder_dl.gif Историческая литература Стариков Николай - Ликвидация России. Кто помог красным победить в Гражданской войне? [Александр Карлов, 2015 г., 72-88 kbps, MP3] Omen
1 | 0

0 | 547

11

2016-04-03 21:33
Omen Последнее
./templates/default/images/folder_dl.gif Медицина и Здоровье Guaita O. / Гуаита О. - Top Italian Red Wines / Лучшие красные вина Италии [2016, PDF, ENG/ITA] Omen
1 | 0

0 | 254

0

2016-06-14 21:03
Omen Последнее
./templates/default/images/folder_dl.gif Зарубежное кино К чему-то прекрасному / Till det som är vackert (2010) HDTV [H.264/1080i] RazBoyNik
1 | 0

0 | 2814

6

2017-02-04 17:52
RazBoyNik Последнее
Показать сообщения:    
Ответить на тему

Текущее время: Сегодня 19:07

Часовой пояс: GMT + 3



Вы не можете начинать темы
Вы не можете отвечать на сообщения
Вы не можете редактировать свои сообщения
Вы не можете удалять свои сообщения
Вы не можете голосовать в опросах
Вы не можете прикреплять файлы к сообщениям
Вы не можете скачивать файлы