Сегодня идет свободное скачивание без начисления Download

Специалист / The Specialist (Луис Льоса /Luis Llosa) [1994, Боевик, Триллер, BDRip] [AVO] (Кашкин "ранний перевод")

Ответить на тему
 
Автор
Сообщение

maxkiller ®

Пол:

Стаж: 4 года 11 месяцев

Сообщений: 282

Торрент-статистика

Пост 18-Авг-2013 15:12

[Цитировать]

Специалист / The Specialist
Год выпуска: 1994
Страна: США, Перу
Жанр: Боевик, Триллер
Продолжительность: 01:49:57
Перевод: Авторский (одноголосый, закадровый)[Кашкин "ранний перевод"]
Оригинальная аудиодорожка: нет
Cубтитры: нет
Режиссер: Луис Льоса /Luis Llosa
В ролях: Сильвестр Сталлоне, Шэрон Стоун, Джеймс Вудс, Род Стайгер, Эрик Робертс, Марио Эрнесто Санчез, Чейз Рэндольф, Жанна Белл, Бриттани Пейдж Боак, Тони Мунафо, Мерседес Энрикез, Йениффер Беренс
Описание: Шэрон Стоун — в роли сексапильной красотки Мэй с роковым прошлым. Она поклялась отомстить гангстерам, убившим ее родителей, и уже выбрала способ, как с ними расправиться, и нашла человека, который это сделает: внешне невозмутимый бывший эксперт — подрывник ЦРУ Рэй.

Качество видео: BDRip
Формат видео: AVI
Видео кодек: XviD
Аудио кодек: AC3
Видео: 704x400 (1.76:1), 23.976 fps, XviD build 64 ~2058 kbps avg, 0.30 bit/pixel
Аудио: 44.100 kHz, AC3 Dolby Digital, 2 ch, ~256.00 kbps avg [AVO] (Кашкин "ранний перевод")

О релизе:

Звуковая дорожка предоставлена Krasnovv,
Видеоряд из релиза ENG1NEER, за что им Спасибо!
Дорожка синхронизирована и наложена killermax2013. Релиз с этим переводом является эксклюзивом для пиратбит , при выкладывании на других ресурсах просьба указывать первоисточник и авторство.

Знаете ли вы, что...

• Стивену Сигалу было предложено исполнить главную роль и стать режиссером фильма. Однако, когда он потребовал за эту работу $9 млн, студия не захотела столько ему платить и вместо него пригласила Сильвестера Сталлоне.

Скриншоты

     

MediaInfo

E:\INTERNET\The Specialist.1994.BDRip.[AVO] (Kashkin).avi
General
Complete name : E:\INTERNET\The Specialist.1994.BDRip.[AVO] (Kashkin).avi
Format : AVI
Format/Info : Audio Video Interleave
File size : 1.78 GiB
Duration : 1h 49mn
Overall bit rate : 2 323 Kbps
Writing application : VirtualDubMod 1.5.10.3 (build 2550/release)
Writing library : VirtualDubMod build 2550/release
Video #0
ID : 0
Format : MPEG-4 Visual
Format profile : Advanced [email protected]
Format settings, BVOP : 1
Format settings, QPel : No
Format settings, GMC : No warppoints
Format settings, Matrix : Custom
Codec ID : XVID
Codec ID/Hint : XviD
Duration : 1h 49mn
Bit rate : 2 058 Kbps
Width : 704 pixels
Height : 400 pixels
Display aspect ratio : 16:9
Frame rate : 23.976 fps
Color space : YUV
Chroma subsampling : 4:2:0
Bit depth : 8 bits
Scan type : Progressive
Compression mode : Lossy
Bits/(Pixel*Frame) : 0.305
Stream size : 1.58 GiB (89%)
Writing library : XviD 64
Audio #1
ID : 1
Format : AC-3
Format/Info : Audio Coding 3
Codec ID : 2000
Duration : 1h 49mn
Bit rate mode : Constant
Bit rate : 256 Kbps
Channel(s) : 2 channels
Sampling rate : 44.1 KHz
Compression mode : Lossy
Stream size : 201 MiB (11%)
Alignment : Split accross interleaves
Interleave, duration : 42 ms (1.00 video frame)
Interleave, preload duration : 500 ms
Вне форума [Профиль] [ЛС]
Похожие темы
Форум Тема Автор Торрент Отв. Посл. сообщение
./templates/default/images/folder_dl.gif Обучающее видео Специалист | Курс M20411B - Администрирование Windows Server 2012 (2013) [PCRec] Varius
1 | 0

0 | 2654

68

2014-02-25 22:02
Varius Последнее
./templates/default/images/folder_dl.gif Обучающее видео Специалист | Microsoft Excel 2013-2010. Уровень 4. Макросы на VBA (2013) [PCRec] [Rus, Eng] Omen
1 | 0

0 | 1993

16

2014-06-20 22:26
Omen Последнее
./templates/default/images/folder_dl.gif Обучающее видео Специалист | Основы экономики для руководителей, менеджеров и специалистов (2014) PCRec Omen
1 | 0

0 | 1268

37

2014-10-24 22:25
Omen Последнее
./templates/default/images/folder_dl.gif Обучающее видео Специалист | Drupal. Уровень 1. Администрирование и создание сайтов (2015) PCRec Varius
1 | 0

0 | 863

31

2015-04-29 05:39
Varius Последнее
./templates/default/images/folder_dl.gif Обучающее видео Специалист | Drupal. Уровень 2. Разработка модулей сайта с нуля (2015) PCRec Omen
1 | 0

0 | 207

15

2015-04-29 20:58
Omen Последнее
./templates/default/images/folder_dl.gif Обучающее видео Специалист | Специалист по Adobe Photoshop СС (2015) PCRec [H.264] Omen
1 | 0

0 | 1121

27

2015-07-28 23:37
Omen Последнее
./templates/default/images/folder_dl.gif Обучающее видео Специалист | Курс 20336В: Планирование, развертывание и конфигурирование основного функционала Microsoft Lync Server 2013 (2015) PCRec moralis
1 | 0

0 | 749

39

2016-02-18 20:05
moralis Последнее
./templates/default/images/folder_dl.gif Обучающее видео Специалист 2016 Менеджер по логистике (управление закупками) / Logistic manager (supply logistics) /Менеджер по логистике (управление закупками) [2016, закупки, логистика, RUS] (Видеоурок) Omen
1 | 0

0 | 477

6

2016-08-07 01:00
Omen Последнее
./templates/default/images/folder_dl.gif Обучающее видео Специалист | СЕН3 (CHFI) Расследование хакерских инцидентов (2016) PCRec Omen
1 | 0

0 | 360

19

2016-10-27 01:01
Omen Последнее
./templates/default/images/folder_dl.gif Обучающее видео Специалист Менеджер по логистике (управление закупками) Logistic manager (supply logistics) (2015) PCRec [H.264] }{@R0N
1 | 0

0 | 340

21

2016-11-22 20:18
}{@R0N Последнее
Показать сообщения:    
Ответить на тему

Текущее время: Сегодня 10:29

Часовой пояс: GMT + 3



Вы не можете начинать темы
Вы не можете отвечать на сообщения
Вы не можете редактировать свои сообщения
Вы не можете удалять свои сообщения
Вы не можете голосовать в опросах
Вы не можете прикреплять файлы к сообщениям
Вы не можете скачивать файлы