Сегодня идет свободное скачивание без начисления Download

Специалист / The Specialist (Луис Льоса /Luis Llosa) [1994, Боевик, Триллер, BDRip] [AVO] (Кашкин "ранний перевод")

Ответить на тему
 
Автор
Сообщение

maxkiller ®

Пол:

Стаж: 4 года 5 месяцев

Сообщений: 280

Торрент-статистика

Пост 18-Авг-2013 15:12

[Цитировать]

Специалист / The Specialist
Год выпуска: 1994
Страна: США, Перу
Жанр: Боевик, Триллер
Продолжительность: 01:49:57
Перевод: Авторский (одноголосый, закадровый)[Кашкин "ранний перевод"]
Оригинальная аудиодорожка: нет
Cубтитры: нет
Режиссер: Луис Льоса /Luis Llosa
В ролях: Сильвестр Сталлоне, Шэрон Стоун, Джеймс Вудс, Род Стайгер, Эрик Робертс, Марио Эрнесто Санчез, Чейз Рэндольф, Жанна Белл, Бриттани Пейдж Боак, Тони Мунафо, Мерседес Энрикез, Йениффер Беренс
Описание: Шэрон Стоун — в роли сексапильной красотки Мэй с роковым прошлым. Она поклялась отомстить гангстерам, убившим ее родителей, и уже выбрала способ, как с ними расправиться, и нашла человека, который это сделает: внешне невозмутимый бывший эксперт — подрывник ЦРУ Рэй.

Качество видео: BDRip
Формат видео: AVI
Видео кодек: XviD
Аудио кодек: AC3
Видео: 704x400 (1.76:1), 23.976 fps, XviD build 64 ~2058 kbps avg, 0.30 bit/pixel
Аудио: 44.100 kHz, AC3 Dolby Digital, 2 ch, ~256.00 kbps avg [AVO] (Кашкин "ранний перевод")

О релизе:

Звуковая дорожка предоставлена Krasnovv,
Видеоряд из релиза ENG1NEER, за что им Спасибо!
Дорожка синхронизирована и наложена killermax2013. Релиз с этим переводом является эксклюзивом для пиратбит , при выкладывании на других ресурсах просьба указывать первоисточник и авторство.

Знаете ли вы, что...

• Стивену Сигалу было предложено исполнить главную роль и стать режиссером фильма. Однако, когда он потребовал за эту работу $9 млн, студия не захотела столько ему платить и вместо него пригласила Сильвестера Сталлоне.

Скриншоты

     

MediaInfo

E:\INTERNET\The Specialist.1994.BDRip.[AVO] (Kashkin).avi
General
Complete name : E:\INTERNET\The Specialist.1994.BDRip.[AVO] (Kashkin).avi
Format : AVI
Format/Info : Audio Video Interleave
File size : 1.78 GiB
Duration : 1h 49mn
Overall bit rate : 2 323 Kbps
Writing application : VirtualDubMod 1.5.10.3 (build 2550/release)
Writing library : VirtualDubMod build 2550/release
Video #0
ID : 0
Format : MPEG-4 Visual
Format profile : Advanced [email protected]
Format settings, BVOP : 1
Format settings, QPel : No
Format settings, GMC : No warppoints
Format settings, Matrix : Custom
Codec ID : XVID
Codec ID/Hint : XviD
Duration : 1h 49mn
Bit rate : 2 058 Kbps
Width : 704 pixels
Height : 400 pixels
Display aspect ratio : 16:9
Frame rate : 23.976 fps
Color space : YUV
Chroma subsampling : 4:2:0
Bit depth : 8 bits
Scan type : Progressive
Compression mode : Lossy
Bits/(Pixel*Frame) : 0.305
Stream size : 1.58 GiB (89%)
Writing library : XviD 64
Audio #1
ID : 1
Format : AC-3
Format/Info : Audio Coding 3
Codec ID : 2000
Duration : 1h 49mn
Bit rate mode : Constant
Bit rate : 256 Kbps
Channel(s) : 2 channels
Sampling rate : 44.1 KHz
Compression mode : Lossy
Stream size : 201 MiB (11%)
Alignment : Split accross interleaves
Interleave, duration : 42 ms (1.00 video frame)
Interleave, preload duration : 500 ms
Вне форума [Профиль] [ЛС]
Похожие темы
Форум Тема Автор Торрент Отв. Посл. сообщение
./templates/default/images/folder_dl.gif Обучающее видео Специалист | М6421 Конфигурирование и устранение неполадок сетевой инфраструктуры Windows Server 2008 Varius
1 | 0

0 | 4077

76

2011-12-17 19:02
Varius Последнее
./templates/default/images/folder_dl.gif Обучающее видео Михаил Гурьянов | Специалист | М6425В Конфигурирование и устранение неполадок службы каталогов Windows Server 2008 Active Directory [2011] PCRec Varius
1 | 0

0 | 4061

73

2011-12-17 19:58
Varius Последнее
./templates/default/images/folder_dl.gif Обучающее видео Специалист | Linux (Ubuntu/FreeBSD). Уровень 3. Безопасность и взаимодействие с Microsoft Windows [2011, Варакин] PCRec Varius
2 | 0

0 | 2879

87

2012-05-01 17:40
Varius Последнее
./templates/default/images/folder_dl.gif Обучающее видео Специалист - Видеокурс ICND1 1.1 Использование сетевого оборудования Cisco часть 1 [2012] PCRec Omen
1 | 0

0 | 3947

94

2012-05-02 17:48
Omen Последнее
./templates/default/images/folder_dl.gif Обучающее видео Специалист - ICND1 1.0: Использование сетевого оборудования Cisco [2011] PCRec Omen
1 | 0

0 | 2657

38

2012-05-02 17:53
Omen Последнее
./templates/default/images/folder_dl.gif Обучающее видео Специалист - M10233 Проектирование и развертывание почтовых решений Microsoft Exchange Server 2010 [2011] PCRec Omen
1 | 0

1 | 3182

55

2015-04-05 09:12
XanKriegorr Последнее
./templates/default/images/folder_dl.gif Обучающее видео Специалист - Adobe Flash CS5/CS4. Уровень 2. Интерактивная анимация и программирование на ActionScript 2.0 [2011] PCRec Omen
0 | 1

0 | 2169

46

2012-05-15 16:44
Omen Последнее
./templates/default/images/folder_dl.gif Обучающее видео Специалист - Adobe Flash CS5/CS4. Уровень 2. Классическая анимация и создание баннеров [2011] PCRec Omen
0 | 1

0 | 2577

61

2012-05-15 16:56
Omen Последнее
./templates/default/images/folder_dl.gif Обучающее видео Специалист | M6416С Обновление навыков работы с сетевой инфраструктурой и Active Directory для перехода на Windows Server 2008 R2 [2011] PCRec Omen
1 | 0

0 | 2001

34

2012-05-15 17:09
Omen Последнее
./templates/default/images/folder_dl.gif Обучающее видео Специалист - VMware vSphere. Уровень 1. Внедрение и эксплуатация [2011] PCRec Omen
0 | 1

0 | 2537

66

2012-05-15 17:37
Omen Последнее
Показать сообщения:    
Ответить на тему

Текущее время: Сегодня 19:46

Часовой пояс: GMT + 3



Вы не можете начинать темы
Вы не можете отвечать на сообщения
Вы не можете редактировать свои сообщения
Вы не можете удалять свои сообщения
Вы не можете голосовать в опросах
Вы не можете прикреплять файлы к сообщениям
Вы не можете скачивать файлы