Сегодня идет свободное скачивание без начисления Download

Игрушка / Le Jouet (Франсис Вебер) (Комедия 1976) DVDRip [H.264]

Ответить на тему
 
Автор
Сообщение

Omen ®

Стаж: 4 года 1 месяц

Сообщений: 194359

Торрент-статистика

Пост 19-Авг-2013 12:33

[Цитировать]

Игрушка / Le Jouet - Год выпуска: 1976
Жанр: Комедия
Описание фильма:
Стать игрушкой для малолетнего миллионера — ситуация не для слабонервных. Герой Пьера Ришара отлично справляется с ролью ужасного ребенка и, вместе с подопечным, отрывается на полную катушку.
Остановить «детский беспредел» оказывается не так просто. Особенно если учесть, что Франсуа Перрен стал для ребенка единственным по-настоящему любимым человеком…
Режиссер: Франсис Вебер
Актеры: Пьер Ришар, Мишель Буке, Фабрис Греко, Жак Франсуа, Даниэль Чекальди, Шарль Жерар
Продолжительность: 01:29:42
Качество видео: DVDRip
Перевод: Дублированный (советский дубляж)

Видеокодек: MPEG-4 AVC/H.264
Битрейт видео: ~1750 Kbps
Размер кадра: 720x448
Аудиокодек: AC3 2.0
Битрейт аудио: 160 Kbps

MediaInfo

General
Unique ID : 212672192920303305001759418932034420968 (0x9FFF2CA9F58C29D5BAA54A43F2A240E8)
Complete name : Игрушка.mkv
Format : Matroska
Format version : Version 4 / Version 2
File size : 1.21 GiB
Duration : 1h 29mn
Overall bit rate : 1 925 Kbps
Movie name : Игрушка (rip by smithland)
Encoded date : UTC 2010-02-22 21:41:31
Writing application : mkvmerge v5.9.0 ('On The Loose')
Writing library : libebml v1.3.0 + libmatroska v1.4.0
Attachment : Yes
Video
ID : 1
Format : AVC
Format/Info : Advanced Video Codec
Format profile : [url=mailto:[email protected]][email protected][/url]
Format settings, CABAC : Yes
Format settings, ReFrames : 10 frames
Codec ID : V_MPEG4/ISO/AVC
Duration : 1h 29mn
Bit rate : 1 750 Kbps
Width : 720 pixels
Height : 448 pixels
Display aspect ratio : 16:10
Frame rate mode : Constant
Frame rate : 25.000 fps
Color space : YUV
Chroma subsampling : 4:2:0
Bit depth : 8 bits
Scan type : Progressive
Bits/(Pixel*Frame) : 0.217
Stream size : 1.08 GiB (90%)
Writing library : x264 core 130 r2273 b3065e6
Encoding settings : cabac=1 / ref=10 / deblock=1:-2:-1 / analyse=0x3:0x133 / me=umh / subme=9 / psy=1 / psy_rd=1.00:0.50 / mixed_ref=1 / me_range=20 / chroma_me=1 / trellis=1 / 8x8dct=1 / cqm=0 / deadzone=21,11 / fast_pskip=1 / chroma_qp_offset=-4 / threads=6 / lookahead_threads=1 / sliced_threads=0 / nr=0 / decimate=0 / interlaced=0 / bluray_compat=0 / constrained_intra=0 / bframes=5 / b_pyramid=2 / b_adapt=1 / b_bias=0 / direct=1 / weightb=1 / open_gop=0 / weightp=2 / keyint=250 / keyint_min=25 / scenecut=40 / intra_refresh=0 / rc_lookahead=40 / rc=abr / mbtree=1 / bitrate=1750 / ratetol=1.0 / qcomp=0.60 / qpmin=0 / qpmax=69 / qpstep=4 / ip_ratio=1.40 / aq=1:1.00
Language : Russian
Default : Yes
Forced : Yes
Color primaries : BT.601 PAL
Transfer characteristics : BT.709
Matrix coefficients : BT.601
Audio
ID : 2
Format : AC-3
Format/Info : Audio Coding 3
Mode extension : CM (complete main)
Format settings, Endianness : Big
Codec ID : A_AC3
Duration : 1h 29mn
Bit rate mode : Constant
Bit rate : 160 Kbps
Channel(s) : 2 channels
Channel positions : Front: L R
Sampling rate : 48.0 KHz
Bit depth : 16 bits
Compression mode : Lossy
Stream size : 103 MiB (8%)
Language : Russian
Default : Yes
Forced : Yes
Menu
00:00:00.000 : en:Chapter 1
00:03:32.720 : en:Chapter 2
00:07:11.120 : en:Chapter 3
00:16:12.560 : en:Chapter 4
00:22:08.240 : en:Chapter 5
00:28:47.600 : en:Chapter 6
00:34:26.480 : en:Chapter 7
00:37:56.240 : en:Chapter 8
00:46:37.040 : en:Chapter 9
00:50:35.600 : en:Chapter 10
00:56:50.480 : en:Chapter 11
01:05:51.440 : en:Chapter 12
01:09:13.520 : en:Chapter 13
01:14:33.680 : en:Chapter 14
01:20:39.920 : en:Chapter 15
01:24:56.240 : en:Chapter 16
Скриншоты:
       
       
[
Вне форума [Профиль] [ЛС]
Показать сообщения:    
Ответить на тему

Текущее время: Сегодня 05:09

Часовой пояс: GMT + 3



Вы не можете начинать темы
Вы не можете отвечать на сообщения
Вы не можете редактировать свои сообщения
Вы не можете удалять свои сообщения
Вы не можете голосовать в опросах
Вы не можете прикреплять файлы к сообщениям
Вы не можете скачивать файлы