Сегодня идет свободное скачивание без начисления Download

Ронин / Ronin (Джон Франкенхаймер) (Боевик, Криминал, Приключения 1998) HDRip

Ответить на тему
 
Автор
Сообщение

Omen ®

Стаж: 4 года 1 месяц

Сообщений: 194394

Торрент-статистика

Пост 20-Авг-2013 16:22

[Цитировать]

Ронин / Ronin - Год выпуска: 1998
Производство: Великобритания, США
Жанр: Боевик, Криминал, Приключения
Описание фильма:
Хотя холодная война давно закончена, тайные наемники, чьи навыки в слежке, шпионаже и силовых схватках буквально легендарны, остаются востребованными при новом мировом порядке и всегда находят высокооплачиваемую работу. Некий таинственный клиент собирает в Париже команду таких «платных оперативников», известных как «Ронины», для похищения сверхсекретного портфеля.
Вскоре выясняется, что это, на первый взгляд простое, задание почти невыполнимо: та же цена обещана за тот же портфель еще нескольким нелегальным группам.
Чтобы справиться с работой, бывший агент ЦРУ по кличке «Сэм» и его наспех сколоченный отряд должны делать то, чего им не приходилось делать никогда раньше: довериться друг другу…
Режиссер: Джон Франкенхаймер
Актеры: Роберт Де Ниро, Жан Рено, Наташа МакЭлхоун, Стеллан Скарсгард, Шон Бин, Скипп Саддат, Микаэль Лонсдаль, Ян Тришка, Джонатан Прайс, Рон Перкинс
Продолжительность: 02:01:33
Качество видео: HDRip
Перевод: Многоголосый закадровый
Язык субтитров: Отсутствуют

Дата мировой премьеры: 12 сентября 1998
Дата выхода DVD релиза: 23 июля 2009, «Двадцатый Век Фокс СНГ»
Видеокодек: Xvid
Битрейт видео: ~718 kbps
Размер кадра: 640x272
Аудиокодек: MP3 2.0
Битрейт аудио: 128 kbps

MediaInfo

Общее
Полное имя : E:\Торренты на раздачу\Ронин\Ronin.avi
Формат : AVI
Формат/Информация : Audio Video Interleave
Размер файла : 744 Мбайт
Продолжительность : 2 ч. 1 м.
Общий поток : 856 Кбит/сек
Программа кодирования : VirtualDubMod 1.5.10.2 (build 2540/release)
Библиотека кодирования : VirtualDubMod build 2540/release
Видео
Идентификатор : 0
Формат : MPEG-4 Visual
Профиль формата : Advanced [email protected]
Параметр BVOP формата : 1
Параметр QPel формата : Да
Параметр GMC формата : Без точки перехода
Параметр матрицы формата : Default (H.263)
Идентификатор кодека : XVID
Идентификатор кодека/Подсказка : XviD
Продолжительность : 2 ч. 1 м.
Битрейт : 719 Кбит/сек
Ширина : 640 пикселей
Высота : 272 пикселя
Соотношение сторон : 2,35:1
Частота кадров : 23,976 кадра/сек
Цветовое пространство : YUV
Субдискретизация насыщенности : 4:2:0
Битовая глубина : 8 бит
Тип развёртки : Прогрессивная
Метод сжатия : С потерями
Бит/(Пиксели*Кадры) : 0.172
Размер потока : 625 Мбайт (84%)
Библиотека кодирования : XviD 1.2.0.dev47 (UTC 2006-11-01)
Аудио
Идентификатор : 1
Формат : MPEG Audio
Версия формата : Version 1
Профиль формата : Layer 3
Идентификатор кодека : 55
Идентификатор кодека/Подсказка : MP3
Продолжительность : 2 ч. 1 м.
Вид битрейта : Постоянный
Битрейт : 128 Кбит/сек
Каналы : 2 канала
Частота : 48,0 КГц
Метод сжатия : С потерями
Размер потока : 111 Мбайт (15%)
Выравнивание : Соединение по промежуткам
Продолжительность промежутка : 42 мс. (1,00 видеокадр)
Время предзагрузки промежутка : 504 мс.
Библиотека кодирования : LAME3.97
Настройки программы : -m s -V 4 -q 2 -lowpass 17 -b 128
Скриншоты:
         
Вне форума [Профиль] [ЛС]
Показать сообщения:    
Ответить на тему

Текущее время: Сегодня 22:48

Часовой пояс: GMT + 3



Вы не можете начинать темы
Вы не можете отвечать на сообщения
Вы не можете редактировать свои сообщения
Вы не можете удалять свои сообщения
Вы не можете голосовать в опросах
Вы не можете прикреплять файлы к сообщениям
Вы не можете скачивать файлы