Сегодня идет свободное скачивание без начисления Download

Цепная реакция / Chain Reaction (Эндрю Дэвис) (Фантастика, Боевик, Триллер, Драма 1996) BDRip [1080p]

Ответить на тему
 
Автор
Сообщение

Omen ®

Стаж: 4 года 1 месяц

Сообщений: 194359

Торрент-статистика

Пост 23-Авг-2013 11:22

[Цитировать]

Цепная реакция / Chain Reaction -«Reaction Time 8-4-96»- Год выпуска: 1996
Производство: США / 20th Century Fox Film Corporation, Chicago Pacific Entertainment, The Zanuck Company
Жанр: Фантастика, Боевик, Триллер, Драма-Описание фильма:
Недалекое будущее. Планета задыхается от экологического кризиса. Группа исследователей во главе с профессором Алистером Бэркли разрабатывает спасительную технологию получения водорода из воды в качестве источника энергии.
Неизвестные лица крадут документы по разработкам, а профессор погибает в результате «несчастного» случая. ФБР подозревает во всем молодых ученых, которые работали в группе профессора. Начинается напряженная борьба за выживание, и на карту поставлены не только честь и свобода…-Режиссер: Эндрю Дэвис
Актеры: Киану Ривз, Морган Фриман, Рейчел Вайс, Фред Уорд, Кевин Данн, Брайан Кокс, Джоанна Кэссиди, Челси Росс, Николас Радэлл, Ци Ма-Продолжительность: 01:46:38
Качество видео: BDRip-Перевод: Многоголосый закадровый, Одноголосый закадровый
Язык субтитров: Русский, Английский
Вид субтитров: Вшитые отключаемые-
Дата мировой премьеры: 2 августа 1996
Дата выхода DVD релиза: 18 июня 2009, «Двадцатый Век Фокс СНГ»-Видеокодек: MPEG-4 AVC/H.264
Битрейт видео: ~16697 kbps
Размер кадра: 1920 x 1038
Аудио 1: Русский, AC3 5.1, 384 kbps, 48 kHz (MVO, R5)
Аудио 2: Русский, AC3 5.1, 384 kbps, 48 kHz (MVO)
Аудио 3: Русский, AC3 5.1, 384 kbps, 48 kHz (AVO, П.Карцев)
Аудио 4: Русский, AC3 5.1, 384 kbps, 48 kHz (AVO, С.Визгунов)
Аудио 5: Английский, DTS 5.1, 1509 kbps, 48 kHz-Сэмпл: Ссылка
-

MediaInfo:

Общее
Уникальный идентификатор : 241912364862966384473805512937990935190 (0xB5FEA072144C100D95946D03C0B25296)
Полное имя : D:\Films\Chain.Reaction.1996.1080p.BDRip.mkv
Формат : Matroska
Версия формата : Version 2
Размер файла : 14,7 Гбайт
Продолжительность : 1 ч. 46 м.
Общий поток : 19,7 Мбит/сек
Дата кодирования : UTC 2013-08-11 07:51:40
Программа кодирования : mkvmerge v5.2.0 ('I can't explain') built on Dec 18 2011 18:12:03
Библиотека кодирования : libebml v1.2.3 + libmatroska v1.3.0
Видео
Идентификатор : 1
Формат : AVC
Формат/Информация : Advanced Video Codec
Профиль формата : [url=mailto:[email protected]][email protected][/url]
Параметр CABAC формата : Да
Параметр ReFrames формата : 4 кадра
Идентификатор кодека : V_MPEG4/ISO/AVC
Продолжительность : 1 ч. 46 м.
Битрейт : 16,7 Мбит/сек
Ширина : 1920 пикселей
Высота : 1038 пикселей
Соотношение сторон : 1,85:1
Режим частоты кадров : Постоянный
Частота кадров : 23,976 кадра/сек
Цветовое пространство : YUV
Субдискретизация насыщенности : 4:2:0
Битовая глубина : 8 бит
Тип развёртки : Прогрессивная
Бит/(Пиксели*Кадры) : 0.349
Размер потока : 12,1 Гбайт (83%)
Библиотека кодирования : x264 core 136 r2348+704+51 d1baef6 tMod [[email protected] X86]
Настройки программы : cabac=1 / ref=4 / deblock=1:-1:-1 / analyse=0x3:0x133 / me=umh / subme=11 / psy=1 / fade_compensate=0.00 / psy_rd=1.00:0.20 / mixed_ref=1 / me_range=32 / chroma_me=1 / trellis=2 / 8x8dct=1 / cqm=0 / deadzone=21,11 / fast_pskip=0 / chroma_qp_offset=-3 / threads=12 / lookahead_threads=3 / sliced_threads=0 / nr=0 / decimate=0 / interlaced=0 / bluray_compat=0 / constrained_intra=0 / fgo=0 / bframes=11 / b_pyramid=2 / b_adapt=2 / b_bias=0 / direct=3 / weightb=1 / open_gop=0 / weightp=2 / keyint=250 / keyint_min=23 / scenecut=40 / intra_refresh=0 / rc_lookahead=80 / rc=2pass / mbtree=1 / bitrate=16700 / ratetol=1.0 / qcomp=0.70 / qpmin=0:0:0 / qpmax=69:69:69 / qpstep=4 / cplxblur=20.0 / qblur=0.5 / ip_ratio=1.40 / aq=1:0.50 / aq-sensitivity=10.00 / aq-factor=1.00:1.00:1.00 / aq2=0 / aq3=0
Язык : English
Default : Да
Forced : Нет
Аудио #1
Идентификатор : 2
Формат : AC-3
Формат/Информация : Audio Coding 3
Расширение режима : CM (complete main)
Параметр Endianness формата : Big
Идентификатор кодека : A_AC3
Продолжительность : 1 ч. 46 м.
Вид битрейта : Постоянный
Битрейт : 384 Кбит/сек
Каналы : 6 каналов
Расположение каналов : Front: L C R, Side: L R, LFE
Частота : 48,0 КГц
Битовая глубина : 16 бит
Метод сжатия : С потерями
Размер потока : 293 Мбайт (2%)
Заголовок : MVO
Язык : Russian
Default : Да
Forced : Нет
Аудио #2
Идентификатор : 3
Формат : AC-3
Формат/Информация : Audio Coding 3
Расширение режима : CM (complete main)
Параметр Endianness формата : Big
Идентификатор кодека : A_AC3
Продолжительность : 1 ч. 46 м.
Вид битрейта : Постоянный
Битрейт : 384 Кбит/сек
Каналы : 6 каналов
Расположение каналов : Front: L C R, Side: L R, LFE
Частота : 48,0 КГц
Битовая глубина : 16 бит
Метод сжатия : С потерями
Размер потока : 293 Мбайт (2%)
Заголовок : MVO
Язык : Russian
Default : Нет
Forced : Нет
Аудио #3
Идентификатор : 4
Формат : AC-3
Формат/Информация : Audio Coding 3
Расширение режима : CM (complete main)
Параметр Endianness формата : Big
Идентификатор кодека : A_AC3
Продолжительность : 1 ч. 46 м.
Вид битрейта : Постоянный
Битрейт : 384 Кбит/сек
Каналы : 6 каналов
Расположение каналов : Front: L C R, Side: L R, LFE
Частота : 48,0 КГц
Битовая глубина : 16 бит
Метод сжатия : С потерями
Размер потока : 293 Мбайт (2%)
Заголовок : AVO (П.Карцев)
Язык : Russian
Default : Нет
Forced : Нет
Аудио #4
Идентификатор : 5
Формат : AC-3
Формат/Информация : Audio Coding 3
Расширение режима : CM (complete main)
Параметр Endianness формата : Big
Идентификатор кодека : A_AC3
Продолжительность : 1 ч. 46 м.
Вид битрейта : Постоянный
Битрейт : 384 Кбит/сек
Каналы : 6 каналов
Расположение каналов : Front: L C R, Side: L R, LFE
Частота : 48,0 КГц
Битовая глубина : 16 бит
Метод сжатия : С потерями
Размер потока : 293 Мбайт (2%)
Заголовок : AVO (С.Визгунов)
Язык : Russian
Default : Нет
Forced : Нет
Аудио #5
Идентификатор : 6
Формат : DTS
Формат/Информация : Digital Theater Systems
Режим : 16
Параметр Endianness формата : Big
Идентификатор кодека : A_DTS
Продолжительность : 1 ч. 46 м.
Вид битрейта : Постоянный
Битрейт : 1509 Кбит/сек
Каналы : 6 каналов
Расположение каналов : Front: L C R, Side: L R, LFE
Частота : 48,0 КГц
Битовая глубина : 24 бит
Метод сжатия : С потерями
Размер потока : 1,12 Гбайт (8%)
Заголовок : Original
Язык : English
Default : Нет
Forced : Нет
Текст #1
Идентификатор : 7
Формат : UTF-8
Идентификатор кодека : S_TEXT/UTF8
Идентификатор кодека/Информация : UTF-8 Plain Text
Язык : Russian
Default : Нет
Forced : Нет
Текст #2
Идентификатор : 8
Формат : UTF-8
Идентификатор кодека : S_TEXT/UTF8
Идентификатор кодека/Информация : UTF-8 Plain Text
Язык : English
Default : Нет
Forced : Нет
-Скриншоты:        
       
-
Вне форума [Профиль] [ЛС]
Показать сообщения:    
Ответить на тему

Текущее время: Сегодня 05:11

Часовой пояс: GMT + 3



Вы не можете начинать темы
Вы не можете отвечать на сообщения
Вы не можете редактировать свои сообщения
Вы не можете удалять свои сообщения
Вы не можете голосовать в опросах
Вы не можете прикреплять файлы к сообщениям
Вы не можете скачивать файлы