Сегодня идет свободное скачивание без начисления Download

Орел или Решка / Odds and Evens (1978) BDRip

Ответить на тему
 
Автор
Сообщение

UndegraundMen ®

Стаж: 3 года 9 месяцев

Сообщений: 28329

Торрент-статистика

Пост 23-Авг-2013 23:02

[Цитировать]

Орел или Решка / Odds and Evens (1978) BDRip-«Gambling for high stakes!»
Русское название: Орел или Решка
Оригинальное название: Odds and Evens
Выпущено: Италия, Columbia Pictures Corporation, Derby Cinematografica
Год выпуска: 1978
Жанр: Комедия
Описание фильма:
После того, как лейтенанта Джонни Фирпо лишает победы спортивная мафия, подстроив поломку мотора скутера, терпению командования военно-морских сил приходит конец. Джонни посылают разобраться с игорной мафией, проникшей во все спортивные мероприятия во Флориде. И неоценимую помощь в этом деле ему окажет его брат Чарли...
Режиссер: Серджио Корбуччи
Актеры: Теренс Хилл, Бад Спенсер, Лучано Катеначчи, Мариса Лаурито, Ким МакКэй, Сальваторе Боргезе, Джерри Лестер, Вуди Вудбери, Карло Реали, Риккардо Пиццути
Продолжительность: 01:55:09
Качество видео: BDRip
Перевод: Многоголосый закадровый

Дата мировой премьеры: 28 октября 1978
Видеокодек: MPEG-4 AVC/H.264
Битрейт видео: ~9064 Кбит/с
Размер кадра: 1280x720
Аудио 1: AC3 Русский 2.0 / 48 kHz / 192 kbps / 16-bit Многоголосый закадровый
Аудио 2: AC3 Английский 2.0 / 48 kHz / 192 kbps / 16-bit Оригинал
Сэмпл: Ссылка

MI

Общее
Уникальный идентификатор : 209340843109469392065861756797136053849 (0x9D7D946FEBCA2789B10F4ED7A276A659)
Полное имя : C:\Xvid4PSP\Pari.e.dispari.1978.x264.BDRip.720p.mkv
Формат : Matroska
Версия формата : Version 4 / Version 2
Размер файла : 7,60 Гбайт
Продолжительность : 1 ч. 55 м.
Общий поток : 9450 Кбит/сек
Название фильма : Odds and Evens / Pari e dispari (1978)
Дата кодирования : UTC 2013-08-22 07:51:00
Программа кодирования : mkvmerge v6.3.0 ('You can't stop me!') built on Jun 28 2013 20:09:41
Библиотека кодирования : libebml v1.3.0 + libmatroska v1.4.0
Видео
Идентификатор : 1
Формат : AVC
Формат/Информация : Advanced Video Codec
Профиль формата : [url=mailto:[email protected]][email protected][/url]
Параметр CABAC формата : Да
Параметр ReFrames формата : 8 кадров
Идентификатор кодека : V_MPEG4/ISO/AVC
Продолжительность : 1 ч. 55 м.
Битрейт : 9064 Кбит/сек
Ширина : 1280 пикселей
Высота : 720 пикселей
Соотношение сторон : 16:9
Режим частоты кадров : Постоянный
Частота кадров : 24,000 кадра/сек
Цветовое пространство : YUV
Субдискретизация насыщенности : 4:2:0
Битовая глубина : 8 бит
Тип развёртки : Прогрессивная
Бит/(Пиксели*Кадры) : 0.410
Размер потока : 7,14 Гбайт (94%)
Заголовок : Odds and Evens / Pari e dispari (1978)
Библиотека кодирования : x264 core 133 r2334 a3ac64b
Настройки программы : cabac=1 / ref=8 / deblock=1:-3:-3 / analyse=0x3:0x113 / me=umh / subme=10 / psy=1 / psy_rd=1.00:0.20 / mixed_ref=1 / me_range=32 / chroma_me=1 / trellis=2 / 8x8dct=1 / cqm=0 / deadzone=21,11 / fast_pskip=0 / chroma_qp_offset=-3 / threads=12 / lookahead_threads=1 / sliced_threads=0 / nr=0 / decimate=0 / interlaced=0 / bluray_compat=0 / constrained_intra=0 / bframes=6 / b_pyramid=2 / b_adapt=2 / b_bias=0 / direct=3 / weightb=1 / open_gop=0 / weightp=2 / keyint=240 / keyint_min=24 / scenecut=40 / intra_refresh=0 / rc_lookahead=40 / rc=2pass / mbtree=0 / bitrate=9064 / ratetol=1.0 / qcomp=0.60 / qpmin=0 / qpmax=69 / qpstep=4 / cplxblur=20.0 / qblur=0.5 / vbv_maxrate=50000 / vbv_bufsize=62500 / nal_hrd=none / ip_ratio=1.40 / pb_ratio=1.30 / aq=1:1.00
Язык : Italian
Default : Да
Forced : Нет
Аудио #1
Идентификатор : 2
Формат : AC-3
Формат/Информация : Audio Coding 3
Профиль формата : Dolby Digital
Расширение режима : CM (complete main)
Параметр Endianness формата : Big
Идентификатор кодека : A_AC3
Продолжительность : 1 ч. 55 м.
Вид битрейта : Постоянный
Битрейт : 192 Кбит/сек
Каналы : 2 канала
Расположение каналов : Front: L R
Частота : 48,0 КГц
Битовая глубина : 16 бит
Метод сжатия : С потерями
Размер потока : 158 Мбайт (2%)
Заголовок : Russian DD 2.0 MVO
Язык : Russian
Default : Да
Forced : Нет
Аудио #2
Идентификатор : 3
Формат : AC-3
Формат/Информация : Audio Coding 3
Расширение режима : CM (complete main)
Параметр Endianness формата : Big
Идентификатор кодека : A_AC3
Продолжительность : 1 ч. 55 м.
Вид битрейта : Постоянный
Битрейт : 192 Кбит/сек
Каналы : 2 канала
Расположение каналов : Front: L R
Частота : 48,0 КГц
Битовая глубина : 16 бит
Метод сжатия : С потерями
Размер потока : 158 Мбайт (2%)
Заголовок : AC3 2 ch 192 kbps
Язык : English
Default : Нет
Forced : Нет
Меню
00:00:00.000 : it:Chapter 1
00:06:08.958 : it:Chapter 2
00:12:13.708 : it:Chapter 3
00:24:07.875 : it:Chapter 4
00:39:05.458 : it:Chapter 5
00:58:59.041 : it:Chapter 6
01:17:51.666 : it:Chapter 7
01:39:46.416 : it:Chapter 8
Скриншоты:
         
Время раздачи: 24/7
Вне форума [Профиль] [ЛС]
Показать сообщения:    
Ответить на тему

Текущее время: Сегодня 14:54

Часовой пояс: GMT + 3



Вы не можете начинать темы
Вы не можете отвечать на сообщения
Вы не можете редактировать свои сообщения
Вы не можете удалять свои сообщения
Вы не можете голосовать в опросах
Вы не можете прикреплять файлы к сообщениям
Вы не можете скачивать файлы