Сегодня идет свободное скачивание без начисления Download

Марс атакует! / Mars Attacks! (Тим Бёртон) (фантастика, комедия 1996) BDRip [H.264]

Ответить на тему
 
Автор
Сообщение

Omen ®

Стаж: 4 года 1 месяц

Сообщений: 194359

Торрент-статистика

Пост 25-Авг-2013 20:14

[Цитировать]

Марс атакует! / Mars Attacks! -«Хорошая планета. Мы ее берем!»- Год выпуска: 1996
Производство: США
Жанр: фантастика, комедия-Описание фильма: Наша планета подверглась чудовищному нападению. Марсиане, бесстрастные и бездушные существа, эти маленькие зеленые создания, высаживаются в пустыне со своих космических кораблей, а затем наступают на всех направлениях. Столичный Вашингтон, Лас-Вегас и другие города сотрясаются от мощнейших взрывов, разрушениям нет числа... Президент США призывает командование своих вооруженных сил принять меры, однако мнения самих командующих, двух генералов разделились. «Разбить и вернуть их на Марс!», - считает генерал Деккер. «Заключить мир», - возражает генерал Кейси.
Дальнейшие события должны продемонстрировать, кто же из них прав.-Режиссер: Тим Бёртон
Актеры: Джек Николсон (President James Dale / Art Land), Гленн Клоуз (First Lady Marsha Dale), Аннетт Бенинг (Barbara Land), Пирс Броснан (Professor Donald Kessler), Дэнни ДеВито (Rude Gambler), Мартин Шорт (Press Secretary Jerry Ross), Сара Джессика Паркер (Nathalie Lake), Майкл Дж. Фокс (Jason Stone), Род Стайгер (General Decker), Том Джонс (играет самого себя), Джим Браун (Byron Williams), Лукас Хаас (Richie Norris)-Продолжительность: 01:45:46
Качество видео: BDRip
Перевод: Дублированный, двуголосый закадровый
Язык субтитров: Русские, английские
Вид субтитров: Вшитые отключаемые- -Видеокодек: MPEG-4 AVC/H.264
Битрейт видео: ~2 714 Кбит/с
Размер кадра: 1164x484
Аудио 1: Русский; AC3; 6 ch; 384 kbps - Дублированный
Аудио 2: Русский; AC3; 6 ch; 448 kbps - Двуголосый (Tycoon)
Аудио 3: Англ-ий; AC3; 6 ch; 448 kbps
-

MediaInfo:

D:\Торрент\Mars.Attacks!.1996.BDRip-AVC.tRuAVC.mkv
General
  • Unique ID : 192577389770495583942640900971012351347 (0x90E10E604FADB3E88242EFE2E8BCE573)
  • Complete name : D:\Торрент\Mars.Attacks!.1996.(H.264).BDRip.mkv
  • Format : Matroska
  • Format version : Version 2
  • File size : 3.01 GiB
  • Duration : 1h 45mn
  • Overall bit rate : 4 075 Kbps
  • Encoded date : UTC 2011-02-04 11:08:28
  • Writing application : mkvmerge v3.4.0 ('Rapunzel') built on May 15 2010 09:38:20
  • Writing library : libebml v0.8.0 + libmatroska v0.9.0
  • Attachment : Yes
    Video #1
  • ID : 1
  • Format : AVC
  • Format/Info : Advanced Video Codec
  • Format profile : [url=mailto:[email protected]][email protected][/url]
  • Format settings, CABAC : Yes
  • Format settings, ReFrames : 12 frames
  • Codec ID : V_MPEG4/ISO/AVC
  • Duration : 1h 45mn
  • Bit rate : 2 714 Kbps
  • Width : 1 164 pixels
  • Height : 484 pixels
  • Display aspect ratio : 2.40:1
  • Frame rate mode : Constant
  • Frame rate : 23.976 fps
  • Color space : YUV
  • Chroma subsampling : 4:2:0
  • Bit depth : 8 bits
  • Scan type : Progressive
  • Bits/(Pixel*Frame) : 0.201
  • Stream size : 2.01 GiB (67%)
  • Writing library : x264 core 113 r1884kMod 7313bb5
  • Encoding settings : cabac=1 / ref=12 / deblock=1:-3:-3 / analyse=0x3:0x133 / me=umh / subme=10 / psy=1 / fade_compensate=0.00 / psy_rd=1.00:0.05 / mixed_ref=1 / me_range=32 / chroma_me=1 / trellis=2 / 8x8dct=1 / cqm=0 / deadzone=21,11 / fast_pskip=1 / chroma_qp_offset=-3 / threads=12 / sliced_threads=0 / nr=0 / decimate=1 / interlaced=0 / constrained_intra=0 / bframes=11 / b_pyramid=2 / b_adapt=2 / b_bias=0 / direct=3 / weightb=1 / open_gop=0 / weightp=2 / keyint=250 / keyint_min=23 / scenecut=40 / intra_refresh=0 / rc=crf / mbtree=0 / crf=17.5000 / qcomp=0.60 / qpmin=0 / qpmax=69 / qpstep=4 / ip_ratio=1.40 / pb_ratio=1.30 / aq=1:1.00
  • Language : English
  • Default : Yes
  • Forced : No
  • Matrix coefficients : BT.709
    Audio #2
  • ID : 2
  • Format : AC-3
  • Format/Info : Audio Coding 3
  • Mode extension : CM (complete main)
  • Format settings, Endianness : Big
  • Codec ID : A_AC3
  • Duration : 1h 45mn
  • Bit rate mode : Constant
  • Bit rate : 384 Kbps
  • Channel(s) : 6 channels
  • Channel positions : Front: L C R, Side: L R, LFE
  • Sampling rate : 48.0 KHz
  • Bit depth : 16 bits
  • Compression mode : Lossy
  • Stream size : 291 MiB (9%)
  • Title : 48 kHz, AC-3, 5.1 ch, 384 kbps - Dub
  • Language : Russian
  • Default : Yes
  • Forced : No
    Audio #3
  • ID : 3
  • Format : AC-3
  • Format/Info : Audio Coding 3
  • Mode extension : CM (complete main)
  • Format settings, Endianness : Big
  • Codec ID : A_AC3
  • Duration : 1h 45mn
  • Bit rate mode : Constant
  • Bit rate : 448 Kbps
  • Channel(s) : 6 channels
  • Channel positions : Front: L C R, Side: L R, LFE
  • Sampling rate : 48.0 KHz
  • Bit depth : 16 bits
  • Compression mode : Lossy
  • Stream size : 339 MiB (11%)
  • Title : 48 kHz, AC-3, 5.1 ch, 448 kbps - MVO Tycoon
  • Language : Russian
  • Default : No
  • Forced : No
    Audio #4
  • ID : 4
  • Format : AC-3
  • Format/Info : Audio Coding 3
  • Mode extension : CM (complete main)
  • Format settings, Endianness : Big
  • Codec ID : A_AC3
  • Duration : 1h 45mn
  • Bit rate mode : Constant
  • Bit rate : 448 Kbps
  • Channel(s) : 6 channels
  • Channel positions : Front: L C R, Side: L R, LFE
  • Sampling rate : 48.0 KHz
  • Bit depth : 16 bits
  • Compression mode : Lossy
  • Stream size : 339 MiB (11%)
  • Title : 48 kHz, AC-3, 5.1 ch, 448 kbps - Original
  • Language : English
  • Default : No
  • Forced : No
    Text #5
  • ID : 5
  • Format : ASS
  • Codec ID : S_TEXT/ASS
  • Codec ID/Info : Advanced Sub Station Alpha
  • Compression mode : Lossless
  • Title : Dub
  • Language : Russian
  • Default : No
  • Forced : No
    Text #6
  • ID : 6
  • Format : ASS
  • Codec ID : S_TEXT/ASS
  • Codec ID/Info : Advanced Sub Station Alpha
  • Compression mode : Lossless
  • Title : Tycoon
  • Language : Russian
  • Default : No
  • Forced : No
    Text #7
  • ID : 7
  • Format : ASS
  • Codec ID : S_TEXT/ASS
  • Codec ID/Info : Advanced Sub Station Alpha
  • Compression mode : Lossless
  • Language : English
  • Default : No
  • Forced : No

Знаете ли Вы, что...

  • Фильм снят на основе серии вкладышей из пачек жевательной резинки конца 50-х годов, нарисованных художниками: Леном Брауном, Вуди Гельманом, Уолли Вудом, Бобом Пауэллом и Норманом Сондерсом.
  • Первоначально роль президента США должен был играть Уоррен Битти, а роль Джейсона Стоуна - Джонни Депп.
  • В эпизоде о «марсианской красавице», прокравшейся в спальню к президенту, её платье не имело никаких пуговиц, молний и прочих застежек, так что актрисе Лизе Мари приходилось каждый раз буквально «вшиваться» в это платье.
  • Звуки выстрелов лучевого оружия были взяты из фильма «Война миров» (The War of the Worlds, 1953).
  • На роль первой леди первоначально была приглашена Мерил Стрип, а затем и Голди Хоун.
  • Это первый фильм Тима Бёртона, где он использует компьютерную графику.
  • В фильме использованы эпизоды из американских научно-фантастических фильмов 50-х годов, в частности из фильма «День, когда остановилась Земля».
-Скриншоты:
         -
Вне форума [Профиль] [ЛС]
Показать сообщения:    
Ответить на тему

Текущее время: Сегодня 05:10

Часовой пояс: GMT + 3



Вы не можете начинать темы
Вы не можете отвечать на сообщения
Вы не можете редактировать свои сообщения
Вы не можете удалять свои сообщения
Вы не можете голосовать в опросах
Вы не можете прикреплять файлы к сообщениям
Вы не можете скачивать файлы