Сегодня идет свободное скачивание без начисления Download

Дрожь земли 2: Повторный удар / Tremors II: Aftershocks (С.С. Уилсон) (1996, Ужасы, Фантастика, Боевик, Триллер, Комедия) HDRip [H.264]

Ответить на тему
 
Автор
Сообщение

_Night Speed_33rus ®

Пол:

Стаж: 3 года 11 месяцев

Сообщений: 70

Откуда: Владимир

Торрент-статистика

Пост 28-Авг-2013 17:11

[Цитировать]

Дрожь земли 2: Повторный удар / Tremors II: Aftershocks (1996) -«Черви вернулись»- Год выпуска: 1996
Жанр: Ужасы, Фантастика, Боевик, Триллер, Комедия
Производство: США/Universal Pictures, Stampede Entertainment
Описание фильма:
Гигантские черви «грабоиды» возвращаются, чтобы превратить Землю в большой шведский стол. Пока что древние хищники из прекембрийского периода довольствуются случайными странниками и рабочими, оказавшимися в мексиканской пустыне.
Но аппетиты тварей растут с каждым днем. Бизнесмен Карлос Ортега решает положить конец беспределу гигантских червей и отправляется в штат Невада на поиски Эрла Бассета, того самого смельчака, которому удалось убить нескольких червей…
Режиссер: С.С. Уилсон
Сценарий: Брент Мэддок, С.С. Уилсон, Рон Андервуд
Продюсер: Кристофер ДеФариа, Нэнси Робертс, Брент Мэддок
Актеры: Фред Уорд, Кристофер Гартин, Хелен Шейвер, Майкл Гросс, Марсело Тьюберт, Марко Эрнандез, Хосе Рамон Росарио, Томас Розалес мл., С.С. Уилсон
Продолжительность: 01:39:28
Качество видео: HDRip
Перевод: Многоголосый закадровый

Дата мировой премьеры: 9 апреля 1996
Видеокодек: MPEG-4 AVC/H.264
Битрейт видео: ~2260 Кбит/сек
Размер кадра: 1024x552
Аудиокодек: AC3 2.0
Битрейт аудио: 256 kbps

Реценция с кинопоиска, Бетанкорт:

Черви из ниоткуда. Часть 2
Поражение, как вы знаете, никто не любит. Особенно гигантские и жестокие монстры, в виде большущих червей, которые наверняка не думали, что проиграют обычным маленьким людишкам. И вот, они решили мстить, и попытаться во второй раз уничтожить их и их городок. Но вот все дело в том, что теперь у наших монстров совершенно новый облик. Предстанут они не только в виде больших червей, но еще и сумеют трансформироваться в более проворных тварей, пускай меньше размером, но с большей опасностью и проворством. Это произошло очень неожиданно, и, естественно, герои, когда столкнулись с этим самым явлением, были не готовы. Первые жертвы «модернизировавшихся» тварей быстро намекнули, что жителям в очередной раз придется встать на защиту своего города и своей жизни.
Смотря данное кино, невольно ощущаешь то, что атмосфера того самого «Дрожь земли» ничуть не пропала, несмотря на то, что это вторая часть, и некоторые вещи тут поменялись. И трансформация, то есть, превращение червей в более мелких, но от этого совершенно не безобидных существ, этой картине совсем не повредила, наоборот — дала такой толчок для постановления новых интересных приключений, в которых главные герои будут с ними сражаться. Ведь сражения тут еще должны быть и забавными, не только жестокими и кровавыми, но и еще чтобы было смешно и интересно, ведь в этом и заключается главное отличие фильма.
С момента выхода первой части прошло семь лет, и могло показаться, что создатели занимались такой упорной работой, чтобы снять действительно интересный сиквел, продолжение истории борьбы с гигантскими червями, добавить что-то новое, чтобы не смотрелось однообразно. На самом деле, фильм получился достаточно интересным, естественно, первую часть он не перепрыгнет, но и на фоне ее может стоять неплохо. Как продолжение — очень даже похвально. Юмор держится, смотреть не скучно, приключения где-то смешные, а где-то опасные, в какие-то моменты на секунду расслабляешься, а в какие-то следишь, что же произойдет дальше, и будет ли убит герой монстром или нет. Ведь здесь им придется рисковать своими жизнями, чтобы попытаться их же спасти и пробраться дальше. Особенно впечатляет сцена, где один из героев маскируется специальным образом, чтобы его не заметили монстры, и пробирается в гараж, чтобы его подорвать.
Бюджет у фильма не очень большой, как может показаться, но для того времени это вполне себе нормальные деньги. Снято достаточно дешево, но в то же время со вкусом, со своим особенным оттенком, присущем фильмам из данного цикла. Конечно, понимаешь, что долго поддерживать такую атмосферу и держать зрителя в интересе с каждым фильмом становится все труднее и труднее, да и вообщем-то не нужно «Дрожь земли» много фильмов, это не к чему, на мой взгляд, вполне бы хватило первой части, но от нас тут увы ничего не зависит, и создатели продолжили снимать продолжения. Благо над этой частью работали более-менее хорошо, видно, что картина неплохая, если вам понравилась первая часть, вам должна прийтись по вкусу и эта, но не нужно их сравнивать, иначе она, конечно, проиграет.
Мое мнение — вполне себе отличное и достойное продолжение, которое не нужно сравнивать с первым фильмом, а просто на веселый просмотр в свободное время сойдет.

MediaInfo:

Общее
Уникальный идентификатор : 180347973013367613556765983042003869983 (0x87ADC193F00653B2BF5807672BED211F)
Полное имя : H:\Downloads\Дрожь земли 2.mkv
Формат : Matroska
Размер файла : 1,75 Гбайт
Продолжительность : 1 ч. 39 м.
Общий поток : 2516 Кбит/сек
Дата кодирования : UTC 2013-08-27 11:52:26
Программа кодирования : mkvmerge v6.0.0 ('Coming Up For Air') built on Jan 20 2013 09:52:00
Библиотека кодирования : libebml v1.3.0 + libmatroska v1.4.0
Видео
Идентификатор : 1
Формат : AVC
Формат/Информация : Advanced Video Codec
Профиль формата : [url=mailto:[email protected]][email protected][/url]
Параметр CABAC формата : Да
Параметр ReFrames формата : 8 кадров
Идентификатор кодека : V_MPEG4/ISO/AVC
Продолжительность : 1 ч. 39 м.
Битрейт : 2260 Кбит/сек
Ширина : 1024 пикс.
Высота : 552 пикс.
Соотношение сторон : 1,855
Частота кадров : 23,976 кадр/сек
Цветовое пространство : YUV
Подвыборка цветности : 4:2:0
Битовая глубина : 8 бит
Тип развёртки : Прогрессивная
Бит/(Пиксели*Кадры) : 0.167
Размер потока : 1,54 Гбайт (88%)
Заголовок : Tremors 2: Aftershocks
Библиотека кодирования : x264 core 125 r2208 d9d2288
Настройки программы : cabac=1 / ref=8 / deblock=1:-1:-1 / analyse=0x3:0x133 / me=umh / subme=9 / psy=1 / psy_rd=1.00:0.10 / mixed_ref=1 / me_range=32 / chroma_me=1 / trellis=2 / 8x8dct=1 / cqm=0 / deadzone=21,11 / fast_pskip=0 / chroma_qp_offset=-3 / threads=6 / lookahead_threads=1 / sliced_threads=0 / nr=0 / decimate=1 / interlaced=0 / bluray_compat=0 / constrained_intra=0 / bframes=3 / b_pyramid=2 / b_adapt=2 / b_bias=0 / direct=3 / weightb=1 / open_gop=0 / weightp=2 / keyint=250 / keyint_min=25 / scenecut=40 / intra_refresh=0 / rc_lookahead=60 / rc=2pass / mbtree=1 / bitrate=2260 / ratetol=1.0 / qcomp=0.60 / qpmin=10 / qpmax=51 / qpstep=4 / cplxblur=20.0 / qblur=0.5 / ip_ratio=1.40 / aq=1:1.00
Язык : English
Аудио
Идентификатор : 2
Формат : AC-3
Формат/Информация : Audio Coding 3
Расширение режима : CM (complete main)
Идентификатор кодека : A_AC3
Продолжительность : 1 ч. 39 м.
Вид битрейта : Постоянный
Битрейт : 256 Кбит/сек
Каналы : 2 канала
Расположение каналов : Front: L R
Частота : 48,0 КГц
Битовая глубина : 16 бит
Метод сжатия : С потерями
Размер потока : 182 Мбайт (10%)
Заголовок : Профессиональный многоголосый
Язык : Russian
Скриншоты:                    
Вне форума [Профиль] [ЛС]
Показать сообщения:    
Ответить на тему

Текущее время: Сегодня 17:36

Часовой пояс: GMT + 3



Вы не можете начинать темы
Вы не можете отвечать на сообщения
Вы не можете редактировать свои сообщения
Вы не можете удалять свои сообщения
Вы не можете голосовать в опросах
Вы не можете прикреплять файлы к сообщениям
Вы не можете скачивать файлы