Сегодня идет свободное скачивание без начисления Download

Полуночный экспресс / Midnight Express (Алан Паркер) (1978, Драма, Криминал, Биография) BDRip

Ответить на тему
 
Автор
Сообщение

_Night Speed_33rus ®

Пол:

Стаж: 3 года 11 месяцев

Сообщений: 70

Откуда: Владимир

Торрент-статистика

Пост 28-Авг-2013 17:18

[Цитировать]

Полуночный экспресс / Midnight Express (1978) «Walk into the incredible true experience of Billy Hayes, and bring all the courage you can!»- Год выпуска: 1978
Жанр: Драма, Криминал, Биография
Описание фильма:
В основу этой драмы легли реальные события из жизни американского гражданина Билли Хейса. За незначительное правонарушение он был приговорен турецкими властями к беспрецедентно большому сроку.
Режиссер: Алан Паркер
Актеры: Брэд Дэвис, Джон Хёрт, Рэнди Куэйд, Бо Хопкинс, Айрин Миракл, Майк Келлин, Пол Л. Смит, Майкл Яннатос, Норберт Вайссер, Паоло Боначелли
Продолжительность: 02:00:59
Качество видео: BDRip
Перевод: Дублированный + Многоголосый, закадровый
Релиз группа: HQClub
Язык субтитров: Русские, английские (полные)
Вид субтитров: Отдельными файлами (*.srt)

Рейтинг 18+: Зрителям, достигшим 18 лет.
Дата мировой премьеры: 18 мая 1978
Видеокодек: Xvid
Битрейт видео: ~2183 Кбит/сек
Размер кадра: 704*384 (1.85:1)
Аудиокодек: AC3
Аудио 1: 192 Кбит/сек, 48.0 КГц, 16 бит, 2 канала (Дубляж)
Аудио 2: 192 Кбит/сек, 48.0 КГц, 16 бит, 2 канала (Многоголосый, закадровый)
Аудио 3: 384 Кбит/сек, 48.0 КГц, 16 бит, 6 каналов (Английский) (отдельно)
Сэмпл: Ссылка

MediaInfo

Код:
Формат                                   : AVI
Формат/Информация                        : Audio Video Interleave
Профиль формата                          : OpenDML
Размер файла                             : 2,18 Гбайт
Продолжительность                        : 2 ч. 0 м.
Общий поток                              : 2584 Кбит/сек
Название фильма                          : Полуночный экспресс / Midnight Express (1978) BDRip
Режиссёр                                 : yaroslaigor
Жанр                                     : триллер, драма, биография
Программа кодирования                    : VirtualDubMod 1.5.10.2 (build 2540/release)
Правообладатель                          : http://hqclub.net/
Примечание                               : 28.01.2012
Видео
Идентификатор                            : 0
Формат                                   : MPEG-4 Visual
Профиль формата                          : Advanced [email protected]
Параметр BVOP формата                    : 1
Параметр QPel формата                    : Нет
Параметр GMC формата                     : Без точки перехода
Параметр матрицы формата                 : Выборочная
Идентификатор кодека                     : XVID
Идентификатор кодека/Подсказка           : XviD
Продолжительность                        : 2 ч. 0 м.
Битрейт                                  : 2183 Кбит/сек
Ширина                                   : 704 пикселя
Высота                                   : 384 пикселя
Соотношение сторон                       : 1,85:1
Частота кадров                           : 23,976 кадра/сек
Цветовое пространство                    : YUV
Субдискретизация насыщенности            : 4:2:0
Битовая глубина                          : 8 бит
Тип развёртки                            : Прогрессивная
Метод сжатия                             : С потерями
Бит/(Пиксели*Кадры)                      : 0.337
Размер потока                            : 1,84 Гбайт (84%)
Библиотека кодирования                   : XviD 72
Аудио #1
Идентификатор                            : 1
Формат                                   : AC-3
Формат/Информация                        : Audio Coding 3
Расширение режима                        : CM (complete main)
Параметр Endianness формата              : Big
Идентификатор кодека                     : 2000
Продолжительность                        : 2 ч. 0 м.
Вид битрейта                             : Постоянный
Битрейт                                  : 192 Кбит/сек
Каналы                                   : 2 канала
Расположение каналов                     : Front: L R
Частота                                  : 48,0 КГц
Битовая глубина                          : 16 бит
Метод сжатия                             : С потерями
Размер потока                            : 166 Мбайт (7%)
Выравнивание                             : Разделение по промежуткам
Продолжительность промежутка             : 42  мс. (1,00 видеокадр)
Время предзагрузки промежутка            : 500  мс.
Аудио #2
Идентификатор                            : 2
Формат                                   : AC-3
Формат/Информация                        : Audio Coding 3
Расширение режима                        : CM (complete main)
Параметр Endianness формата              : Big
Идентификатор кодека                     : 2000
Продолжительность                        : 2 ч. 0 м.
Вид битрейта                             : Постоянный
Битрейт                                  : 192 Кбит/сек
Каналы                                   : 2 канала
Расположение каналов                     : Front: L R
Частота                                  : 48,0 КГц
Битовая глубина                          : 16 бит
Метод сжатия                             : С потерями
Размер потока                            : 166 Мбайт (7%)
Выравнивание                             : Разделение по промежуткам
Продолжительность промежутка             : 42  мс. (1,00 видеокадр)
Время предзагрузки промежутка            : 500  мс.
---------------------------------------------------------------------
Аудио
Формат                                   : AC-3
Формат/Информация                        : Audio Coding 3
Расширение режима                        : CM (complete main)
Параметр Endianness формата              : Big
Продолжительность                        : 2 ч. 0 м.
Вид битрейта                             : Постоянный
Битрейт                                  : 384 Кбит/сек
Каналы                                   : 6 каналов
Расположение каналов                     : Front: L C R, Side: L R, LFE
Частота                                  : 48,0 КГц
Битовая глубина                          : 16 бит
Метод сжатия                             : С потерями
Размер потока                            : 332 Мбайт (100%)
Скриншоты:
       
Вне форума [Профиль] [ЛС]
Показать сообщения:    
Ответить на тему

Текущее время: Сегодня 05:08

Часовой пояс: GMT + 3



Вы не можете начинать темы
Вы не можете отвечать на сообщения
Вы не можете редактировать свои сообщения
Вы не можете удалять свои сообщения
Вы не можете голосовать в опросах
Вы не можете прикреплять файлы к сообщениям
Вы не можете скачивать файлы