Сегодня идет свободное скачивание без начисления Download

Некоторые девчонки / Ну, и девушки / Some Girls (Майкл Хоффман) (1988, Комедия) DVDRip

Ответить на тему
 
Автор
Сообщение

_Night Speed_33rus ®

Пол:

Стаж: 3 года 11 месяцев

Сообщений: 70

Откуда: Владимир

Торрент-статистика

Пост 28-Авг-2013 17:21

[Цитировать]

Некоторые девчонки / Ну, и девушки / Some Girls (1988)- Год выпуска: 1988
Производство: США, Великобритания
Жанр: Комедия
Описание фильма:
Студент колледжа Майкл приезжает на Рождество в Канаду, чтобы провести его с семьей своей подружки Габриэллы. Однако та сразу заявляет, что больше его не любит. Вынужденный остаться на праздники в доме Габриэллы, Майкл обнаруживает, что ее семья очень странная. Отец, писатель, постоянно ходит по дому обнаженным. Бабушка принимает Майкла за своего покойного мужа, а сестры Габриэллы проявляют к нему явный интерес…
Режиссер: Майкл Хоффман
Актеры: Патрик Демпси, Дженнифер Коннелли, Лила Кедрова, Эшли Гринфилд, Лэнс Эдвардс, Флоринда Болкан
Продолжительность: 01:33:31
Качество видео: DVDRip
Перевод: Двуголосый закадровый

Дата мировой премьеры: 9.09.1988
Видеокодек: Xvid
Битрейт видео: ~1821 kbps, avg 23,976 кадров/сек
Размер кадра: 704x384
Аудио 1: 48 kHz, MPEG Layer 3, 2 ch, ~128.00 kbps avg - русский
Аудио 2: 48 kHz, MPEG Layer 3, 2 ch, ~128.00 kbps avg - английский

MediaInfo

Видео
Идентификатор : 0
Формат : MPEG-4 Visual
Профиль формата : Advanced [email protected]
Параметр BVOP формата : 2
Параметр QPel формата : Нет
Параметр GMC формата : Без точки перехода
Параметр матрицы формата : Выборочная
Идентификатор кодека : XVID
Идентификатор кодека/Подсказка : XviD
Продолжительность : 1 ч. 33 м.
Битрейт : 1823 Кбит/сек
Ширина : 704 пикселя
Высота : 384 пикселя
Соотношение сторон : 1,85:1
Частота кадров : 23,976 кадра/сек
Цветовое пространство : YUV
Субдискретизация насыщенности : 4:2:0
Битовая глубина : 8 бит
Тип развёртки : Прогрессивная
Метод сжатия : С потерями
Бит/(Пиксели*Кадры) : 0.281
Размер потока : 1,19 Гбайт (87%)
Библиотека кодирования : XviD 1.2.1 (UTC 2008-12-04)
Аудио #1
Идентификатор : 1
Формат : MPEG Audio
Версия формата : Version 1
Профиль формата : Layer 3
Режим : Joint stereo
Расширение режима : MS Stereo
Идентификатор кодека : 55
Идентификатор кодека/Подсказка : MP3
Продолжительность : 1 ч. 33 м.
Вид битрейта : Постоянный
Битрейт : 128 Кбит/сек
Каналы : 2 канала
Частота : 48,0 КГц
Метод сжатия : С потерями
Размер потока : 85,6 Мбайт (6%)
Выравнивание : Соединение по промежуткам
Продолжительность промежутка : 42 мс. (1,00 видеокадр)
Время предзагрузки промежутка : 504 мс.
Аудио #2
Идентификатор : 2
Формат : MPEG Audio
Версия формата : Version 1
Профиль формата : Layer 3
Режим : Joint stereo
Расширение режима : MS Stereo
Идентификатор кодека : 55
Идентификатор кодека/Подсказка : MP3
Продолжительность : 1 ч. 33 м.
Вид битрейта : Постоянный
Битрейт : 128 Кбит/сек
Каналы : 2 канала
Частота : 48,0 КГц
Метод сжатия : С потерями
Размер потока : 85,6 Мбайт (6%)
Выравнивание : Соединение по промежуткам
Продолжительность промежутка : 42 мс. (1,00 видеокадр)
Время предзагрузки промежутка : 504 мс.
Скриншоты:
       
Вне форума [Профиль] [ЛС]
Показать сообщения:    
Ответить на тему

Текущее время: Сегодня 10:59

Часовой пояс: GMT + 3



Вы не можете начинать темы
Вы не можете отвечать на сообщения
Вы не можете редактировать свои сообщения
Вы не можете удалять свои сообщения
Вы не можете голосовать в опросах
Вы не можете прикреплять файлы к сообщениям
Вы не можете скачивать файлы