Сегодня идет свободное скачивание без начисления Download

Белое платье / Al reda al abiad (Хасан Рамзи) (1973, Мелодрама) VHSRip

Ответить на тему
 
Автор
Сообщение

_Night Speed_33rus ®

Пол:

Стаж: 3 года 11 месяцев

Сообщений: 70

Откуда: Владимир

Торрент-статистика

Пост 31-Авг-2013 21:12

[Цитировать]

Белое платье / Al reda al abiad - Год выпуска: 1973
Жанр: Мелодрама
Выпущено: "Наср-фильм", Арабская Республика Египет
Описание фильма:
Даляль и Камал познакомились при случайных обстоятельствах... она попала под колеса его машины. А дальше - как в любой мелодраме - история их любви, очень сложная и не простая. Ведь Камал Бэй - сын известного в Каире миллионера Омара Бея. И Камалу долго пришлось скрывать свой брак от отца, ведь он никогда не разрешил бы сыну жениться на девушке не их "круга". Но тайное, когда-то становится явным... и не без "добрых" людей.
Режиссер: Хасан Рамзи
Актеры: Нагля Фатхи, Ахмад Мазхар, Магди Вахба, Саид Салех
Продолжительность: 01:32:02
Перевод: Дублированный

Видеокодек: XviD
Битрейт видео: ~1998 Кбит/с
Размер кадра: 512 х 384
Качество видео: VHSRip
Аудиокодек: AC3 2.0
Битрейт аудио: 128 Кбит/с

Интересно

Один из самых кассовых фильмов за всю историю советского кинопроката. Чемпион 1976 года. Седьмое место в этом хит-параде (61 млн зрителей), больше, чем у "Спортлото-82" и почти столько же, сколько у "Кавказской пленницы".

MediaInfo

Общее
Полное имя : Beloe.platie.1973.XviD.VHSRip.avi
Формат : AVI
Формат/Информация : Audio Video Interleave
Размер файла : 1,37 Гбайт
Продолжительность : 1 ч. 32 м.
Общий поток : 2136 Кбит/сек
Программа кодирования : VirtualDubMod 1.5.10.1 (build 2366/release)
Библиотека кодирования : VirtualDubMod build 2366/release
Видео
Идентификатор : 0
Формат : MPEG-4 Visual
Профиль формата : Advanced [email protected]
Параметр BVOP формата : 2
Параметр QPel формата : Нет
Параметр GMC формата : Без точки перехода
Параметр матрицы формата : Default (H.263)
Режим смешивания : Сжатый битовый поток
Идентификатор кодека : XVID
Идентификатор кодека/Подсказка : XviD
Продолжительность : 1 ч. 32 м.
Битрейт : 1998 Кбит/сек
Ширина : 512 пикселей
Высота : 384 пикселя
Соотношение сторон : 4:3
Частота кадров : 25,000 кадров/сек
Цветовое пространство : YUV
Субдискретизация насыщенности : 4:2:0
Битовая глубина : 8 бит
Тип развёртки : Прогрессивная
Метод сжатия : С потерями
Бит/(Пиксели*Кадры) : 0.406
Размер потока : 1,28 Гбайт (94%)
Библиотека кодирования : XviD 1.1.2 (UTC 2006-11-01)
Аудио
Идентификатор : 1
Формат : AC-3
Формат/Информация : Audio Coding 3
Расширение режима : CM (complete main)
Параметр Endianness формата : Big
Идентификатор кодека : 2000
Продолжительность : 1 ч. 32 м.
Вид битрейта : Постоянный
Битрейт : 128 Кбит/сек
Каналы : 2 канала
Расположение каналов : Front: L R
Частота : 48,0 КГц
Битовая глубина : 16 бит
Метод сжатия : С потерями
Размер потока : 84,3 Мбайт (6%)
Выравнивание : Разделение по промежуткам
Продолжительность промежутка : 40 мс. (1,00 видеокадр)
Время предзагрузки промежутка : 500 мс.
Скриншоты:          
Вне форума [Профиль] [ЛС]
Показать сообщения:    
Ответить на тему

Текущее время: Сегодня 10:58

Часовой пояс: GMT + 3



Вы не можете начинать темы
Вы не можете отвечать на сообщения
Вы не можете редактировать свои сообщения
Вы не можете удалять свои сообщения
Вы не можете голосовать в опросах
Вы не можете прикреплять файлы к сообщениям
Вы не можете скачивать файлы