Сегодня идет свободное скачивание без начисления Download

Любовь в Кашмире / Arzoo (Рамананд Сагар) (1965, Мелодрама, мюзикл, драма) DVDRip [Полная версия]

Ответить на тему
 
Автор
Сообщение

_Night Speed_33rus ®

Пол:

Стаж: 3 года 10 месяцев

Сообщений: 70

Откуда: Владимир

Торрент-статистика

Пост 31-Авг-2013 21:13

[Цитировать]

Любовь в Кашмире / Arzoo - Год выпуска: 1965
Жанр: Мелодрама, мюзикл, драма
Выпущено: Индия, Sagar Art International
Описание фильма:
По окончании института Гопол едет отдыхать в Кашмир, где под именем Сарджу выступает на лыжных соревнованиях и знакомится с Ушей, дочерью местного богача. Молодые люди полюбили друг друга, не подозревая о том, что отец Уши прочит ей в мужья друга Гопала - Рамеша. Рамеш отказывается ради друга от своего счастья. Убедившись а искренности любви Уши, которую не пугает его несчастье, Гопал возвращается к любимой.
Режиссер: Рамананд Сагар
Актеры: Раджендра Кумар, Садхана, Фероз Кхан, Мехмуд, Назима, Насир Хуссейн, Ачала Сачдев, Дхумал, Малика, Хари Шивдасани, Брахм Бхардвадж, Джанкидас, Нана Палсикар, Дэйзи Ирани
Продолжительность: 02:55:37
Перевод: Дублированный

Видеокодек: Xvid
Битрейт видео: ~1521 Кбит/с
Размер кадра: 720 x 544
Качество видео: DVDRip
Аудио 1: Русский, Dolby MP3, 2 ch, 256 kb/s
Аудио 2: Хинди, Dolby AC3, 2 ch, 192 kb/s

Интересно

Фильм с большим успехом шел в кинозалах СССР с 1969 года и был одним из самых кассовых. В советском прокате занимает 45-е место по посещаемости среди зарубежных фильмов (40.6 млн. зрителей).
Перевод оригинального названия - «Желание».
Фильм дублирован на киностудии "Ленфильм"
Роли дублировали: Александр Демьяненко, Ирина Губанова, Владимир Костин и др.
Полная версия фильма. В советском прокатном варианте вырезано 36 минут материала. Данная версия больше советского прокатного варианта на 36 минут. По этой причине, в некоторых местах, перевод будет отсутствовать. Всем приятного просмотра!- Раджендра Кумар
Дата рождения: 20 июля, 1929 • рак
Место рождения: Сиалкот, Пенджаб, Британская Индия (Пакистан)
Дата смерти: 29 июля, 1999 • 70 лет...Он умер от рака на 9 день после празднования своего 70-летия.
Супруга: Shukla. Дети: сын и две дочери
Полное имя : Раджендра Кумар Тули (Rajendra Kumar Tuli).
Интересный факт: он никогда не принимал лекарств.
Его сын - актёр Кумар Гурав
Раджендра Кумар был одним из очень богатых людей в Индии, при этом очень много жертвовал денег на благотворительность..А также он имел звание доктора философии. И еще интересный факт: он был в большой дружбе с семейством Раджа Капура, оба родителя мечтали о брачных узах своих детей Кумара Гаурава и Римой. Но дети отказались от таких брачных объязательств, чем положили конец дружбе их родителей.Раджендра Кумар (20 июля 1929 - 29 июля 1999 года), индийский актер, который снимался в кино Болливуда, в основном в течение 1950-1960-х и 1970-х. Он также режиссером и продюссером. Он родился в Сиалкоте, в провинции Западный Пенджаб Британской Индии, в настоящее время провинция Пакистана. Он дебютировал в фильме Jogan в 1950 году, где он снялся вместе с Дилипом Кумаром и Наргис. В 1957 году вышел на экраны суперхит того времени фильм Mother India где он также снимался вместе с Наргис и Сунилом Даттом.. После этого у него было много успешных кассовых хитов, включая Dhool Ка Phool (1959), Mere Mehboob (1963), Сангам (1964), Arzoo (1965) и Suraj (1966). Он считался золотым мальчиком для производителей кино в том смысле, что он актер, который мог восстановить денежные затраты производителей в течение нескольких недель. Большинство его фильмов в 60-х годах имели кассовый успех. Тем не менее, в середине 1970-х годов оказались разрушительными для Раджендра Кумара. Несколько его фильмов оказались некассовыми, и он уже не получал таких предложений как раньше. Это был мрачный момент в его карьере, как он сказал в интервью. Однако, солнечный свет пришел, когда ему предложили интересную роль в фильме Saajan Bina Suhagan совместно с Нутан. Фильм имел огромный успех , он стал блокбастером 1978 года. В 1981 Раджендра Кумар отошел в сторону и помогал карьере своего сына Kumar Gaurav в фильме Love Story, производством этого фильма он сам и занялся. В 1981 году этот фильм стал блокбастером. Но успех был кратковременным, так как другие фильмыКумара Гаурава не имели большого успеха, он вскоре ушел из киноиндустрии. Раджендра вместе с сыном в 1993 г. Снимались в фильме Phool / Цветок, но это тоже был провал. В последний раз Кумар появился в фильме в Earth / Земля в 1998 году. Он также был сопродюсером экранизации книги Редьярда Киплинга "Книга джунглей» книга.(1994 г) Он умер в июле 1999 рака на девятый дней после своего 70-летия. Он был известен как человек, который никогда за всю свою жизнь не принимал лекарств.

MediaInfo

Общее
Полное имя : Lubov.v. Kashmire.1965.XviD.DVDRip.avi
Формат : AVI
Формат/Информация : Audio Video Interleave
Профиль формата : OpenDML
Размер файла : 2,44 Гбайт
Продолжительность : 2 ч. 55 м.
Общий поток : 1986 Кбит/сек
Программа кодирования : VirtualDubMod 1.5.10.2 (build 2540/release)
Библиотека кодирования : VirtualDubMod build 2540/release
Видео
Идентификатор : 0
Формат : MPEG-4 Visual
Профиль формата : Advanced [email protected]
Параметр BVOP формата : 2
Параметр QPel формата : Нет
Параметр GMC формата : Без точки перехода
Параметр матрицы формата : Default (H.263)
Режим смешивания : Сжатый битовый поток
Идентификатор кодека : XVID
Идентификатор кодека/Подсказка : XviD
Продолжительность : 2 ч. 55 м.
Битрейт : 1521 Кбит/сек
Ширина : 720 пикселей
Высота : 544 пикселя
Соотношение сторон : 4:3
Частота кадров : 23,976 кадра/сек
Цветовое пространство : YUV
Субдискретизация насыщенности : 4:2:0
Битовая глубина : 8 бит
Тип развёртки : Прогрессивная
Метод сжатия : С потерями
Бит/(Пиксели*Кадры) : 0.162
Размер потока : 1,87 Гбайт (77%)
Библиотека кодирования : XviD 1.2.1 (UTC 2008-12-04)
Аудио #1
Идентификатор : 1
Формат : MPEG Audio
Версия формата : Version 1
Профиль формата : Layer 3
Идентификатор кодека : 55
Идентификатор кодека/Подсказка : MP3
Продолжительность : 2 ч. 55 м.
Вид битрейта : Постоянный
Битрейт : 256 Кбит/сек
Каналы : 2 канала
Частота : 44,1 КГц
Метод сжатия : С потерями
Размер потока : 322 Мбайт (13%)
Выравнивание : Разделение по промежуткам
Продолжительность промежутка : 42 мс. (1,00 видеокадр)
Время предзагрузки промежутка : 500 мс.
Аудио #2
Идентификатор : 2
Формат : AC-3
Формат/Информация : Audio Coding 3
Расширение режима : CM (complete main)
Параметр Endianness формата : Big
Идентификатор кодека : 2000
Продолжительность : 2 ч. 55 м.
Вид битрейта : Постоянный
Битрейт : 192 Кбит/сек
Каналы : 2 канала
Расположение каналов : Front: L R
Частота : 48,0 КГц
Битовая глубина : 16 бит
Метод сжатия : С потерями
Размер потока : 241 Мбайт (10%)
Выравнивание : Разделение по промежуткам
Продолжительность промежутка : 42 мс. (1,00 видеокадр)
Время предзагрузки промежутка : 500 мс.
Скриншоты:          
Вне форума [Профиль] [ЛС]
Похожие темы
Форум Тема Автор Торрент Отв. Посл. сообщение
./templates/default/images/folder_dl.gif Художественная литература Гарсиа Маркес Габриель - Любовь во время чумы [Князев Игорь, 2011 г., 192 kbps, MP3] Omen
1 | 0

0 | 1044

8

2011-10-10 19:53
Omen Последнее
./templates/default/images/folder_dl.gif Фильмы 2011-2016 Последняя любовь на Земле / Perfect Sense (Дэвид МакКензи) [2011 г., драма, мелодрама, DVDRip] Лицензия sassad
1 | 0

0 | 905

26

2011-12-10 20:22
sassad Последнее
./templates/default/images/folder_dl.gif T Фильмы 2001-2010 Выживут только любовники / Only Lovers Left Alive (Джим Джармуш / Jim Jarmusch, 2013, Фантастика, триллер, драма) DVDScr [VO] Omen
1 | 0

0 | 893

18

2014-03-10 18:38
Omen Последнее
./templates/default/images/folder_dl.gif Приключения и квесты Mahjong Detective: The Stolen Love / Маджонг Детектив. Похищенная Любовь [P] [RUS] (2015) Omen
18 | 0

0 | 357

10

2015-06-08 21:00
Omen Последнее
Показать сообщения:    
Ответить на тему

Текущее время: Сегодня 13:15

Часовой пояс: GMT + 3



Вы не можете начинать темы
Вы не можете отвечать на сообщения
Вы не можете редактировать свои сообщения
Вы не можете удалять свои сообщения
Вы не можете голосовать в опросах
Вы не можете прикреплять файлы к сообщениям
Вы не можете скачивать файлы