Сегодня идет свободное скачивание без начисления Download

Материнская любовь / Mamta (Асит Сен) (1966, Драма) DVDRip

Ответить на тему
 
Автор
Сообщение

_Night Speed_33rus ®

Пол:

Стаж: 3 года 11 месяцев

Сообщений: 70

Откуда: Владимир

Торрент-статистика

Пост 31-Авг-2013 21:15

[Цитировать]

Материнская любовь / Mamta - Год выпуска: 1966
Жанр: Драма
Страна: Индия
Описание фильма:
Юная красавица любит бедного юношу. Увы, им не суждено быть вместе - он уезжает за границу, она выходит замуж за нелюбимого, становится матерью. Через много лет герои встречаются вновь при трагических обстоятельствах.
Режиссер: Асит Сен
Актеры: Ашок Кумар, Сучитра Сен, Дхармендра
Продолжительность: 02:29:31
Перевод: Дублированный

Видеокодек: XviD
Битрейт видео: ~1880 Кбит/с
Размер кадра: 720 x 480
Качество видео: DVDRip
Аудиокодек: AC3 5.1
Битрейт аудио: 448 Кбит/с

MediaInfo

Общее
Полное имя : Materinskaya.Liubov.1966.DVDRip.XviD.avi
Формат : AVI
Формат/Информация : Audio Video Interleave
Профиль формата : OpenDML
Размер файла : 2,44 Гбайт
Продолжительность : 2 ч. 29 м.
Общий поток : 2341 Кбит/сек
Программа кодирования : Lavf52.33.0
Видео
Идентификатор : 0
Формат : MPEG-4 Visual
Профиль формата : [email protected]
Параметр BVOP формата : Нет
Параметр QPel формата : Нет
Параметр GMC формата : Без точки перехода
Параметр матрицы формата : Default (H.263)
Идентификатор кодека : XVID
Идентификатор кодека/Подсказка : XviD
Продолжительность : 2 ч. 29 м.
Битрейт : 1880 Кбит/сек
Ширина : 720 пикселей
Высота : 480 пикселей
Соотношение сторон : 3:2
Частота кадров : 25,000 кадров/сек
Стандарт вещания : NTSC
Цветовое пространство : YUV
Субдискретизация насыщенности : 4:2:0
Битовая глубина : 8 бит
Тип развёртки : Прогрессивная
Метод сжатия : С потерями
Бит/(Пиксели*Кадры) : 0.218
Размер потока : 1,96 Гбайт (80%)
Библиотека кодирования : XviD 1.2.1 (UTC 2008-12-04)
Аудио
Идентификатор : 1
Формат : AC-3
Формат/Информация : Audio Coding 3
Расширение режима : CM (complete main)
Параметр Endianness формата : Big
Идентификатор кодека : 2000
Продолжительность : 2 ч. 29 м.
Вид битрейта : Постоянный
Битрейт : 448 Кбит/сек
Каналы : 6 каналов
Расположение каналов : Front: L C R, Side: L R, LFE
Частота : 48,0 КГц
Битовая глубина : 16 бит
Метод сжатия : С потерями
Размер потока : 479 Мбайт (19%)
Выравнивание : Соединение по промежуткам
Продолжительность промежутка : 32 мс. (0,80 видеокадр)
Скриншоты:          
Вне форума [Профиль] [ЛС]
Похожие темы
Форум Тема Автор Торрент Отв. Посл. сообщение
./templates/default/images/folder_dl.gif Видеотренинги Иван Никитин | Создание сложных V-Ray материалов для интерьера (2014) PCRec Omen
1 | 0

0 | 35

11

2015-03-25 21:08
Omen Последнее
./templates/default/images/folder_dl.gif Обучающее видео [HighLoad] HighLoad++ Лучшие материалы [2015, RUS] Omen
1 | 0

0 | 400

10

2015-03-27 00:00
Omen Последнее
./templates/default/images/folder_dl.gif Обучающее видео SEO Conference | Материалы VI Международной SEO Conference (2015) PCRec [H.264/720p] Varius
1 | 0

1 | 417

14

2016-01-16 01:23
Osipok20 Последнее
./templates/default/images/folder_dl.gif Обучающее видео [IT Pro] Материалы по системному и сетевому администрированию CentOS 7 [2015, RUS] Omen
3 | 0

0 | 326

19

2015-12-27 18:00
Omen Последнее
Показать сообщения:    
Ответить на тему

Текущее время: Сегодня 17:21

Часовой пояс: GMT + 3



Вы не можете начинать темы
Вы не можете отвечать на сообщения
Вы не можете редактировать свои сообщения
Вы не можете удалять свои сообщения
Вы не можете голосовать в опросах
Вы не можете прикреплять файлы к сообщениям
Вы не можете скачивать файлы