Сегодня идет свободное скачивание без начисления Download

Месть Каморры/ Кровные братья / I guappi (Паскуале Скуитьери) (1974, Драма) DVDRip [H.264]

Ответить на тему
 
Автор
Сообщение

_Night Speed_33rus ®

Пол:

Стаж: 3 года 11 месяцев

Сообщений: 70

Откуда: Владимир

Торрент-статистика

Пост 31-Авг-2013 21:17

[Цитировать]

Месть Каморры/ Кровные братья / I guappi - Год выпуска: 1974
Жанр: Драма
Производство: Италия/Documento, Gianni Hecht Lucari
Описание фильма:
Феноменальный фильм с шекспировскими страстями в духе "Однажды в Америке", только действие происходит в Италии конца XIX века. История двух членов неаполитанского тайного общества "каморра", ставших кровными братьями (то есть братьями по крови - как чужой, пролитой на улицах Неаполя, так и собственной, которую смешивают на тайной церемонии принятия в Каморру). Фантастическая игра Франко Неро и Фаби Тести, а также великолепной Клаудии Кардинале! Шикарная музыка, виды старого Неаполя, погоня со стрельбой на конных экипажах, пытки в тюремных подвалах, ножевые схватки и, конечно...любовь по-итальянски.
Режиссер: Паскуале Скуитьери
Сценарий: Мишель Приску, Уго Пирро, Паскуале Скуитьери
Продюсер: Джанни Хект Лукари
Актеры: Клаудия Кардинале, Франко Неро, Фабио Тести, Лина Полито, Рита Форзано, Антонио Орландо, Раймон Пеллегрен, Розалия Маджио, Эдоардо Машия, Нино Винджелли
Продолжительность: 02:06:30
Качество видео: DVDRip
Перевод: Одноголосый закадровый
Субтитры: Отсутствуют

Дата мировой премьеры: 23 февраля 1974
Видеокодек: MPEG-4 AVC/H.264
Битрейт видео: ~1790 Кбит/сек
Размер кадра: 720x384
Аудиокодек: AC3 2.0
Битрейт аудио: 192 kbps

MediaInfo:

Общее
Уникальный идентификатор : 194787973602609984050024055205268624082 (0x928ACC92EAC9E95A90D5D374269112D2)
Полное имя : H:\Downloads\Кровные братья.mkv
Формат : Matroska
Размер файла : 1,75 Гбайт
Продолжительность : 2 ч. 6 м.
Общий поток : 1984 Кбит/сек
Дата кодирования : UTC 2013-08-29 21:19:20
Программа кодирования : mkvmerge v6.0.0 ('Coming Up For Air') built on Jan 20 2013 09:52:00
Библиотека кодирования : libebml v1.3.0 + libmatroska v1.4.0
Видео
Идентификатор : 1
Формат : AVC
Формат/Информация : Advanced Video Codec
Профиль формата : [url=mailto:[email protected]][email protected][/url]
Параметр CABAC формата : Да
Параметр ReFrames формата : 8 кадров
Параметры GOP формата : M=4, N=30
Идентификатор кодека : V_MPEG4/ISO/AVC
Продолжительность : 2 ч. 6 м.
Битрейт : 1790 Кбит/сек
Ширина : 720 пикс.
Высота : 384 пикс.
Соотношение сторон : 1,875
Частота кадров : 25,000 кадр/сек
Цветовое пространство : YUV
Подвыборка цветности : 4:2:0
Битовая глубина : 8 бит
Тип развёртки : Прогрессивная
Бит/(Пиксели*Кадры) : 0.259
Размер потока : 1,55 Гбайт (88%)
Заголовок : I guappi
Библиотека кодирования : x264 core 125 r2208 d9d2288
Настройки программы : cabac=1 / ref=8 / deblock=1:-1:-1 / analyse=0x3:0x133 / me=umh / subme=9 / psy=1 / psy_rd=1.00:0.10 / mixed_ref=1 / me_range=32 / chroma_me=1 / trellis=2 / 8x8dct=1 / cqm=0 / deadzone=21,11 / fast_pskip=0 / chroma_qp_offset=-3 / threads=6 / lookahead_threads=1 / sliced_threads=0 / nr=0 / decimate=1 / interlaced=0 / bluray_compat=0 / constrained_intra=0 / bframes=3 / b_pyramid=2 / b_adapt=2 / b_bias=0 / direct=3 / weightb=1 / open_gop=0 / weightp=2 / keyint=250 / keyint_min=25 / scenecut=40 / intra_refresh=0 / rc_lookahead=60 / rc=2pass / mbtree=1 / bitrate=1790 / ratetol=1.0 / qcomp=0.60 / qpmin=10 / qpmax=51 / qpstep=4 / cplxblur=20.0 / qblur=0.5 / ip_ratio=1.40 / aq=1:1.00
Язык : Italian
Аудио
Идентификатор : 2
Формат : AC-3
Формат/Информация : Audio Coding 3
Расширение режима : CM (complete main)
Идентификатор кодека : A_AC3
Продолжительность : 2 ч. 6 м.
Вид битрейта : Постоянный
Битрейт : 192 Кбит/сек
Каналы : 2 канала
Расположение каналов : Front: L R
Частота : 48,0 КГц
Битовая глубина : 16 бит
Метод сжатия : С потерями
Размер потока : 174 Мбайт (10%)
Заголовок : Любительский одноголосый
Язык : Russian
Скриншоты:                    
Вне форума [Профиль] [ЛС]
Показать сообщения:    
Ответить на тему

Текущее время: Сегодня 13:28

Часовой пояс: GMT + 3



Вы не можете начинать темы
Вы не можете отвечать на сообщения
Вы не можете редактировать свои сообщения
Вы не можете удалять свои сообщения
Вы не можете голосовать в опросах
Вы не можете прикреплять файлы к сообщениям
Вы не можете скачивать файлы