Сегодня идет свободное скачивание без начисления Download

Трудная мишень / Hard Target ( Джон Ву ) (1993, Боевик, триллер ) BDRip [H.264]

Ответить на тему
 
Автор
Сообщение

Витек1 ®

Пол:

Стаж: 3 года 11 месяцев

Сообщений: 459

Откуда: Житомир

Торрент-статистика

Пост 01-Сен-2013 13:34

[Цитировать]

Трудная мишень / Hard Target -«Catch him if you can.»- Год выпуска: 1993
Производство: США
Жанр: Боевик, триллер-Описание фильма: Мужественный герой неутомимого Ван Дамма пытается помочь молодой красавице найти ее отца, ветерана вьетнамской войны, пропавшего без вести не на полях сражений, а в родной стране, а в результате — вынужден не на жизнь, а на смерть схватиться с бандой патологических злодеев, которые используют несчастных бездомных в качестве жертв своей жестокой и опасной игры.-Режиссер: Джон Ву
Актеры: Жан-Клод Ван Дамм (Chance Boudreaux), Янси Батлер (Natasha Binder), Лэнс Хенриксен (Emil Fouchon), Арнольд Вослу (Pik van Cleef), Уилфорд Бримли (Uncle Douvee), Уилли С. Карпентер (Elijah Roper), Кейси Леммонс (Det. Marie Mitchell), Чак Пфаррер (Douglas Binder), Роберт Аписа (Mr. Lopacki), Дуглас Форсайт Рай (Frick), Майк Лейнерт (Frack), Ленор Бэнкс (Marie)-Продолжительность: 01:39:33
Качество видео: BDRip
Перевод: Многоголосый закадровый, авторский одноголосый закадровый
Язык субтитров: Русский, Английский
Вид субтитров: Вшитые отключаемые-Мировая премьера: 20 августа 1993- -Видеокодек: MPEG-4 AVC/H.264
Битрейт видео: ~2 877 Кбит/с
Размер кадра: 1024x556
Аудио 1: Русский: AC3 ; 5.1; 448 kbps - Многоголосый
Аудио 1: Русский: AC3 ; 5.1; 448 kbps - Андрей Гаврилов
Аудио 2: Англ-ий: AC3; 5.1; 448 kbps
-

MediaInfo:

General
Unique ID : 175337430707329949025998639760885245977 (0x83E8C2C4E91B3B5386A8A0CA0F096819)
Complete name : D:\Торрент\Trudnaja.mishen.1993.(H.264).BDRip.mkv
Format : Matroska
Format version : Version 4 / Version 2
File size : 2.93 GiB
Duration : 1h 39mn
Overall bit rate : 4 220 Kbps
Encoded date : UTC 2013-08-01 08:12:23
Writing application : mkvmerge v6.1.0 ('Old Devil') built on Mar 2 2013 14:32:37
Writing library : libebml v1.3.0 + libmatroska v1.4.0
Video
ID : 1
Format : AVC
Format/Info : Advanced Video Codec
Format profile : [url=mailto:[email protected]][email protected][/url]
Format settings, CABAC : Yes
Format settings, ReFrames : 10 frames
Codec ID : V_MPEG4/ISO/AVC
Duration : 1h 39mn
Bit rate : 2 877 Kbps
Width : 1 024 pixels
Height : 556 pixels
Display aspect ratio : 1.85:1
Frame rate mode : Constant
Frame rate : 23.976 fps
Color space : YUV
Chroma subsampling : 4:2:0
Bit depth : 8 bits
Scan type : Progressive
Bits/(Pixel*Frame) : 0.211
Stream size : 1.94 GiB (66%)
Title : Rip by 0ptimus
Writing library : x264 core 133 r2334 a3ac64b
Encoding settings : cabac=1 / ref=10 / deblock=1:-3:-3 / analyse=0x3:0x113 / me=umh / subme=11 / psy=1 / psy_rd=1.00:0.20 / mixed_ref=1 / me_range=48 / chroma_me=1 / trellis=2 / 8x8dct=1 / cqm=0 / deadzone=21,11 / fast_pskip=0 / chroma_qp_offset=-3 / threads=4 / lookahead_threads=1 / sliced_threads=0 / nr=0 / decimate=0 / interlaced=0 / bluray_compat=0 / constrained_intra=0 / bframes=9 / b_pyramid=2 / b_adapt=2 / b_bias=0 / direct=3 / weightb=1 / open_gop=0 / weightp=2 / keyint=240 / keyint_min=23 / scenecut=40 / intra_refresh=0 / rc_lookahead=40 / rc=2pass / mbtree=0 / bitrate=2877 / ratetol=1.0 / qcomp=0.60 / qpmin=0 / qpmax=69 / qpstep=4 / cplxblur=20.0 / qblur=0.5 / vbv_maxrate=50000 / vbv_bufsize=50000 / nal_hrd=none / ip_ratio=1.40 / pb_ratio=1.30 / aq=1:1.00
Language : English
Default : Yes
Forced : Yes
Audio #1
ID : 2
Format : AC-3
Format/Info : Audio Coding 3
Mode extension : CM (complete main)
Format settings, Endianness : Big
Codec ID : A_AC3
Duration : 1h 39mn
Bit rate mode : Constant
Bit rate : 448 Kbps
Channel(s) : 6 channels
Channel positions : Front: L C R, Side: L R, LFE
Sampling rate : 48.0 KHz
Bit depth : 16 bits
Compression mode : Lossy
Stream size : 319 MiB (11%)
Title : Многоголосый закадровый AC3 5.1 448 kbps
Language : Russian
Default : Yes
Forced : Yes
Audio #2
ID : 3
Format : AC-3
Format/Info : Audio Coding 3
Mode extension : CM (complete main)
Format settings, Endianness : Big
Codec ID : A_AC3
Duration : 1h 39mn
Bit rate mode : Constant
Bit rate : 448 Kbps
Channel(s) : 6 channels
Channel positions : Front: L C R, Side: L R, LFE
Sampling rate : 48.0 KHz
Bit depth : 16 bits
Compression mode : Lossy
Stream size : 319 MiB (11%)
Title : Авторский [Андрей Гаврилов] AC3 5.1 448 kbps
Language : Russian
Default : No
Forced : No
Audio #3
ID : 4
Format : AC-3
Format/Info : Audio Coding 3
Mode extension : CM (complete main)
Format settings, Endianness : Big
Codec ID : A_AC3
Duration : 1h 39mn
Bit rate mode : Constant
Bit rate : 448 Kbps
Channel(s) : 6 channels
Channel positions : Front: L C R, Side: L R, LFE
Sampling rate : 48.0 KHz
Bit depth : 16 bits
Compression mode : Lossy
Stream size : 319 MiB (11%)
Title : AC3 5.1 448 kbps
Language : English
Default : No
Forced : No
Text #1
ID : 5
Format : UTF-8
Codec ID : S_TEXT/UTF8
Codec ID/Info : UTF-8 Plain Text
Language : Russian
Default : No
Forced : No
Text #2
ID : 6
Format : UTF-8
Codec ID : S_TEXT/UTF8
Codec ID/Info : UTF-8 Plain Text
Language : English
Default : No
Forced : No
Menu
00:00:00.000 : en:The Quarry in the Quarter (Main Titles)
00:08:22.293 : en:A Hassle at the Half Moon
00:16:06.924 : en:Someone Who Knows the City
00:26:03.645 : en:Randal Lends an Ear
00:40:07.696 : en:A Post Mortem for Dr. Morton
00:42:53.028 : en:A Little Game
00:53:40.592 : en:Machine Guns and Motorcycles
01:05:01.480 : en:Uncle Douvee
01:08:57.925 : en:Bombs and Arrows
01:12:25.215 : en:Bullets on the Bayou
01:14:30.299 : en:Flameout at the Factory
01:18:05.972 : en:The Mardi Gras Graveyard
01:24:45.622 : en:A Volley for Van Cleaf
01:27:23.947 : en:The Vengeance of Fouchon
01:32:15.154 : en:Hunting Season Is Over
01:34:28.412 : en:A Real Catastrophe (End Titles)
-Скриншоты:
         -

_________________
Скачал сам, дай скачать другому!!!Не забудь сказать -
Вне форума [Профиль] [ЛС]
Похожие темы
Форум Тема Автор Торрент Отв. Посл. сообщение
./templates/default/images/folder_dl.gif Для детей, родителей и учителей Людмила Петрановская | Если с ребенком трудно (2013) [PDF] sashau
1 | 0

0 | 1250

12

2013-10-31 16:38
sashau Последнее
Показать сообщения:    
Ответить на тему

Текущее время: Сегодня 00:20

Часовой пояс: GMT + 3



Вы не можете начинать темы
Вы не можете отвечать на сообщения
Вы не можете редактировать свои сообщения
Вы не можете удалять свои сообщения
Вы не можете голосовать в опросах
Вы не можете прикреплять файлы к сообщениям
Вы не можете скачивать файлы